  0
SECTION
  2
HEADER
  9
$ACADVER
  1
AC1015
  9
$ACADMAINTVER
 70
    20
  9
$DWGCODEPAGE
  3
ANSI_932
  9
$INSBASE
 10
0.0
 20
0.0
 30
0.0
  9
$EXTMIN
 10
-0.0425346845286185
 20
-0.0300885618821667
 30
-0.0000000000112498
  9
$EXTMAX
 10
2789.553734678998
 20
1973.299228625456
 30
0.0000000000002956
  9
$LIMMIN
 10
0.0
 20
0.0
  9
$LIMMAX
 10
297.0
 20
209.0
  9
$ORTHOMODE
 70
     1
  9
$REGENMODE
 70
     1
  9
$FILLMODE
 70
     1
  9
$QTEXTMODE
 70
     0
  9
$MIRRTEXT
 70
     1
  9
$LTSCALE
 40
1.0
  9
$ATTMODE
 70
     1
  9
$TEXTSIZE
 40
2.5
  9
$TRACEWID
 40
1.0
  9
$TEXTSTYLE
  7
Standard
  9
$CLAYER
  8
本体
  9
$CELTYPE
  6
ByLayer
  9
$CECOLOR
 62
   256
  9
$CELTSCALE
 40
3.0
  9
$DISPSILH
 70
     0
  9
$DIMSCALE
 40
10.0
  9
$DIMASZ
 40
1.5
  9
$DIMEXO
 40
2.0
  9
$DIMDLI
 40
3.75
  9
$DIMRND
 40
0.0
  9
$DIMDLE
 40
0.0
  9
$DIMEXE
 40
1.5
  9
$DIMTP
 40
0.0
  9
$DIMTM
 40
0.0
  9
$DIMTXT
 40
3.0
  9
$DIMCEN
 40
2.5
  9
$DIMTSZ
 40
0.0
  9
$DIMTOL
 70
     0
  9
$DIMLIM
 70
     0
  9
$DIMTIH
 70
     0
  9
$DIMTOH
 70
     0
  9
$DIMSE1
 70
     0
  9
$DIMSE2
 70
     0
  9
$DIMTAD
 70
     1
  9
$DIMZIN
 70
     8
  9
$DIMBLK
  1
Open30
  9
$DIMASO
 70
     1
  9
$DIMSHO
 70
     1
  9
$DIMPOST
  1

  9
$DIMAPOST
  1

  9
$DIMALT
 70
     0
  9
$DIMALTD
 70
     3
  9
$DIMALTF
 40
0.03937007874016
  9
$DIMLFAC
 40
1.0
  9
$DIMTOFL
 70
     1
  9
$DIMTVP
 40
0.0
  9
$DIMTIX
 70
     0
  9
$DIMSOXD
 70
     0
  9
$DIMSAH
 70
     0
  9
$DIMBLK1
  1

  9
$DIMBLK2
  1

  9
$DIMSTYLE
  2
ISO-25
  9
$DIMCLRD
 70
     0
  9
$DIMCLRE
 70
     0
  9
$DIMCLRT
 70
     0
  9
$DIMTFAC
 40
1.0
  9
$DIMGAP
 40
0.5
  9
$DIMJUST
 70
     0
  9
$DIMSD1
 70
     0
  9
$DIMSD2
 70
     0
  9
$DIMTOLJ
 70
     0
  9
$DIMTZIN
 70
     8
  9
$DIMALTZ
 70
     0
  9
$DIMALTTZ
 70
     0
  9
$DIMUPT
 70
     0
  9
$DIMDEC
 70
     2
  9
$DIMTDEC
 70
     2
  9
$DIMALTU
 70
     2
  9
$DIMALTTD
 70
     3
  9
$DIMTXSTY
  7
Standard
  9
$DIMAUNIT
 70
     0
  9
$DIMADEC
 70
     0
  9
$DIMALTRND
 40
0.0
  9
$DIMAZIN
 70
     0
  9
$DIMDSEP
 70
    46
  9
$DIMATFIT
 70
     0
  9
$DIMFRAC
 70
     0
  9
$DIMLDRBLK
  1
Open30
  9
$DIMLUNIT
 70
     2
  9
$DIMLWD
 70
    -2
  9
$DIMLWE
 70
    -2
  9
$DIMTMOVE
 70
     0
  9
$LUNITS
 70
     2
  9
$LUPREC
 70
     4
  9
$SKETCHINC
 40
1.0
  9
$FILLETRAD
 40
9.9
  9
$AUNITS
 70
     0
  9
$AUPREC
 70
     0
  9
$MENU
  1
.
  9
$ELEVATION
 40
0.0
  9
$PELEVATION
 40
0.0
  9
$THICKNESS
 40
0.0
  9
$LIMCHECK
 70
     0
  9
$CHAMFERA
 40
10.0
  9
$CHAMFERB
 40
10.0
  9
$CHAMFERC
 40
20.0
  9
$CHAMFERD
 40
0.0
  9
$SKPOLY
 70
     0
  9
$TDCREATE
 40
2453510.558637211
  9
$TDUCREATE
 40
2453510.183637211
  9
$TDUPDATE
 40
2457557.645127893
  9
$TDUUPDATE
 40
2457557.270127893
  9
$TDINDWG
 40
0.0407025231
  9
$TDUSRTIMER
 40
0.0407025231
  9
$USRTIMER
 70
     1
  9
$ANGBASE
 50
0.0
  9
$ANGDIR
 70
     0
  9
$PDMODE
 70
     0
  9
$PDSIZE
 40
0.0
  9
$PLINEWID
 40
0.0
  9
$SPLFRAME
 70
     0
  9
$SPLINETYPE
 70
     6
  9
$SPLINESEGS
 70
     8
  9
$HANDSEED
  5
28B0
  9
$SURFTAB1
 70
     6
  9
$SURFTAB2
 70
     6
  9
$SURFTYPE
 70
     6
  9
$SURFU
 70
     6
  9
$SURFV
 70
     6
  9
$UCSBASE
  2

  9
$UCSNAME
  2

  9
$UCSORG
 10
0.0
 20
0.0
 30
0.0
  9
$UCSXDIR
 10
1.0
 20
0.0
 30
0.0
  9
$UCSYDIR
 10
0.0
 20
1.0
 30
0.0
  9
$UCSORTHOREF
  2

  9
$UCSORTHOVIEW
 70
     0
  9
$UCSORGTOP
 10
0.0
 20
0.0
 30
0.0
  9
$UCSORGBOTTOM
 10
0.0
 20
0.0
 30
0.0
  9
$UCSORGLEFT
 10
0.0
 20
0.0
 30
0.0
  9
$UCSORGRIGHT
 10
0.0
 20
0.0
 30
0.0
  9
$UCSORGFRONT
 10
0.0
 20
0.0
 30
0.0
  9
$UCSORGBACK
 10
0.0
 20
0.0
 30
0.0
  9
$PUCSBASE
  2

  9
$PUCSNAME
  2

  9
$PUCSORG
 10
0.0
 20
0.0
 30
0.0
  9
$PUCSXDIR
 10
1.0
 20
0.0
 30
0.0
  9
$PUCSYDIR
 10
0.0
 20
1.0
 30
0.0
  9
$PUCSORTHOREF
  2

  9
$PUCSORTHOVIEW
 70
     0
  9
$PUCSORGTOP
 10
0.0
 20
0.0
 30
0.0
  9
$PUCSORGBOTTOM
 10
0.0
 20
0.0
 30
0.0
  9
$PUCSORGLEFT
 10
0.0
 20
0.0
 30
0.0
  9
$PUCSORGRIGHT
 10
0.0
 20
0.0
 30
0.0
  9
$PUCSORGFRONT
 10
0.0
 20
0.0
 30
0.0
  9
$PUCSORGBACK
 10
0.0
 20
0.0
 30
0.0
  9
$USERI1
 70
     0
  9
$USERI2
 70
     0
  9
$USERI3
 70
     0
  9
$USERI4
 70
     0
  9
$USERI5
 70
     0
  9
$USERR1
 40
0.0
  9
$USERR2
 40
0.0
  9
$USERR3
 40
0.0
  9
$USERR4
 40
0.0
  9
$USERR5
 40
0.0
  9
$WORLDVIEW
 70
     1
  9
$SHADEDGE
 70
     3
  9
$SHADEDIF
 70
    70
  9
$TILEMODE
 70
     1
  9
$MAXACTVP
 70
    48
  9
$PINSBASE
 10
0.0
 20
0.0
 30
0.0
  9
$PLIMCHECK
 70
     0
  9
$PEXTMIN
 10
0.0
 20
0.0
 30
0.0
  9
$PEXTMAX
 10
0.0
 20
0.0
 30
0.0
  9
$PLIMMIN
 10
0.0
 20
0.0
  9
$PLIMMAX
 10
12.0
 20
9.0
  9
$UNITMODE
 70
     0
  9
$VISRETAIN
 70
     1
  9
$PLINEGEN
 70
     0
  9
$PSLTSCALE
 70
     1
  9
$TREEDEPTH
 70
  3020
  9
$CMLSTYLE
  2
Standard
  9
$CMLJUST
 70
     0
  9
$CMLSCALE
 40
20.0
  9
$PROXYGRAPHICS
 70
     1
  9
$MEASUREMENT
 70
     1
  9
$CELWEIGHT
370
    -1
  9
$ENDCAPS
280
     0
  9
$JOINSTYLE
280
     0
  9
$LWDISPLAY
290
     0
  9
$INSUNITS
 70
     4
  9
$HYPERLINKBASE
  1

  9
$STYLESHEET
  1
monochrome.ctb
  9
$XEDIT
290
     1
  9
$CEPSNTYPE
380
     0
  9
$PSTYLEMODE
290
     1
  9
$FINGERPRINTGUID
  2

  9
$VERSIONGUID
  2
{928BA95F-D4BB-4940-B69E-A6E90EA28070}
  9
$EXTNAMES
290
     1
  9
$PSVPSCALE
 40
0.0
  9
$OLESTARTUP
290
     0
  0
ENDSEC
  0
SECTION
  2
CLASSES
  0
CLASS
  1
ACDBDICTIONARYWDFLT
  2
AcDbDictionaryWithDefault
  3
ObjectDBX Classes
 90
        0
280
     0
281
     0
  0
CLASS
  1
ACDBPLACEHOLDER
  2
AcDbPlaceHolder
  3
ObjectDBX Classes
 90
        0
280
     0
281
     0
  0
CLASS
  1
LAYOUT
  2
AcDbLayout
  3
ObjectDBX Classes
 90
        0
280
     0
281
     0
  0
CLASS
  1
DICTIONARYVAR
  2
AcDbDictionaryVar
  3
ObjectDBX Classes
 90
        0
280
     0
281
     0
  0
CLASS
  1
MATERIAL
  2
AcDbMaterial
  3
ObjectDBX Classes
 90
     1153
280
     0
281
     0
  0
CLASS
  1
VISUALSTYLE
  2
AcDbVisualStyle
  3
ObjectDBX Classes
 90
     4095
280
     0
281
     0
  0
CLASS
  1
TABLESTYLE
  2
AcDbTableStyle
  3
ObjectDBX Classes
 90
     4095
280
     0
281
     0
  0
CLASS
  1
SCALE
  2
AcDbScale
  3
ObjectDBX Classes
 90
     1153
280
     0
281
     0
  0
CLASS
  1
MLEADERSTYLE
  2
AcDbMLeaderStyle
  3
ACDB_MLEADERSTYLE_CLASS
 90
     4095
280
     0
281
     0
  0
CLASS
  1
ACDBSECTIONVIEWSTYLE
  2
AcDbSectionViewStyle
  3
ObjectDBX Classes
 90
     1025
280
     0
281
     0
  0
CLASS
  1
ACDBDETAILVIEWSTYLE
  2
AcDbDetailViewStyle
  3
ObjectDBX Classes
 90
     1025
280
     0
281
     0
  0
CLASS
  1
CELLSTYLEMAP
  2
AcDbCellStyleMap
  3
ObjectDBX Classes
 90
     1152
280
     0
281
     0
  0
CLASS
  1
SORTENTSTABLE
  2
AcDbSortentsTable
  3
ObjectDBX Classes
 90
    32768
280
     0
281
     0
  0
CLASS
  1
ACARRAYJIGENTITY
  2
AcArrayJigEntity
  3
ACAD_ARRAY
 90
    32897
280
     0
281
     1
  0
CLASS
  1
ACDBASSOCNETWORK
  2
AcDbAssocNetwork
  3
ObjectDBX Classes
 90
     1025
280
     0
281
     0
  0
CLASS
  1
ACDBASSOCACTION
  2
AcDbAssocAction
  3
ObjectDBX Classes
 90
     1025
280
     0
281
     0
  0
CLASS
  1
ACDBASSOCARRAYACTIONBODY
  2
AcDbAssocArrayActionBody
  3
ObjectDBX Classes
 90
     1025
280
     0
281
     0
  0
CLASS
  1
ACDBASSOCVERTEXACTIONPARAM
  2
AcDbAssocVertexActionParam
  3
ObjectDBX Classes
 90
     1025
280
     0
281
     0
  0
CLASS
  1
ACDBASSOCDEPENDENCY
  2
AcDbAssocDependency
  3
ObjectDBX Classes
 90
     1025
280
     0
281
     0
  0
CLASS
  1
ACDBASSOCARRAYRECTANGULARPARAMETERS
  2
AcDbAssocArrayRectangularParameters
  3
ObjectDBX Classes
 90
    33793
280
     0
281
     0
  0
ENDSEC
  0
SECTION
  2
TABLES
  0
TABLE
  2
VPORT
  5
1FB3
102
{ACAD_XDICTIONARY
360
2439
102
}
330
0
100
AcDbSymbolTable
 70
     1
  0
VPORT
  5
23C3
330
1FB3
100
AcDbSymbolTableRecord
100
AcDbViewportTableRecord
  2
*Active
 70
     0
 10
0.0
 20
0.0
 11
1.0
 21
1.0
 12
1394.755599997235
 22
986.6345700317872
 13
0.0
 23
0.0
 14
10.0
 24
10.0
 15
10.0
 25
10.0
 16
0.0
 26
0.0
 36
1.0
 17
0.0
 27
0.0
 37
0.0
 40
1992.48785424741
 41
3.006482982171799
 42
50.0
 43
0.0
 44
0.0
 50
0.0
 51
0.0
 71
     0
 72
   100
 73
     1
 74
     3
 75
     0
 76
     0
 77
     0
 78
     0
281
     0
 65
     1
110
0.0
120
0.0
130
0.0
111
1.0
121
0.0
131
0.0
112
0.0
122
1.0
132
0.0
 79
     0
146
0.0
1001
ACAD_NAV_VCDISPLAY
1070
     3
  0
ENDTAB
  0
TABLE
  2
LTYPE
  5
1FAE
330
0
100
AcDbSymbolTable
 70
     3
  0
LTYPE
  5
1FAF
330
1FAE
100
AcDbSymbolTableRecord
100
AcDbLinetypeTableRecord
  2
ByBlock
 70
     0
  3

 72
    65
 73
     0
 40
0.0
  0
LTYPE
  5
1FB0
330
1FAE
100
AcDbSymbolTableRecord
100
AcDbLinetypeTableRecord
  2
ByLayer
 70
     0
  3

 72
    65
 73
     0
 40
0.0
  0
LTYPE
  5
8
330
1FAE
100
AcDbSymbolTableRecord
100
AcDbLinetypeTableRecord
  2
Continuous
 70
     0
  3
Solid line
 72
    65
 73
     0
 40
0.0
  0
LTYPE
  5
F1
330
1FAE
100
AcDbSymbolTableRecord
100
AcDbLinetypeTableRecord
  2
HIDDEN
 70
     0
  3
Hidden __ __ __ __ __ __ __ __ __ __ __ __ __ _
 72
    65
 73
     2
 40
9.524999999999998
 49
6.349999999999999
 74
     0
 49
-3.174999999999999
 74
     0
  0
LTYPE
  5
13A
330
1FAE
100
AcDbSymbolTableRecord
100
AcDbLinetypeTableRecord
  2
CENTER
 70
     0
  3
------ - ------ - ----
 72
    65
 73
     4
 40
10.0
 49
6.25
 74
     0
 49
-1.25
 74
     0
 49
1.25
 74
     0
 49
-1.25
 74
     0
  0
ENDTAB
  0
TABLE
  2
LAYER
  5
1FAB
102
{ACAD_XDICTIONARY
360
248F
102
}
330
0
100
AcDbSymbolTable
 70
     9
  0
LAYER
  5
76
102
{ACAD_XDICTIONARY
360
241A
102
}
330
1FAB
100
AcDbSymbolTableRecord
100
AcDbLayerTableRecord
  2
0
 70
     0
 62
     7
  6
Continuous
370
    -3
390
5
  0
LAYER
  5
80
102
{ACAD_XDICTIONARY
360
241C
102
}
330
1FAB
100
AcDbSymbolTableRecord
100
AcDbLayerTableRecord
  2
本体
 70
     0
 62
     7
  6
Continuous
370
    13
390
5
  0
LAYER
  5
4
102
{ACAD_XDICTIONARY
360
241E
102
}
330
1FAB
100
AcDbSymbolTableRecord
100
AcDbLayerTableRecord
  2
寸法線
 70
     0
 62
     2
  6
Continuous
370
     9
390
5
  0
LAYER
  5
7CC
102
{ACAD_XDICTIONARY
360
2422
102
}
330
1FAB
100
AcDbSymbolTableRecord
100
AcDbLayerTableRecord
  2
エンボス
 70
     0
 62
     4
  6
Continuous
370
     5
390
5
  0
LAYER
  5
11
102
{ACAD_XDICTIONARY
360
2424
102
}
330
1FAB
100
AcDbSymbolTableRecord
100
AcDbLayerTableRecord
  2
外枠
 70
     0
 62
     7
  6
Continuous
370
    -3
390
5
  0
LAYER
  5
CE
330
1FAB
100
AcDbSymbolTableRecord
100
AcDbLayerTableRecord
  2
Defpoints
 70
     0
 62
     7
  6
Continuous
290
     0
370
    -3
390
5
  0
LAYER
  5
236B
102
{ACAD_XDICTIONARY
360
2428
102
}
330
1FAB
100
AcDbSymbolTableRecord
100
AcDbLayerTableRecord
  2
嵩上平面
 70
     0
 62
   112
  6
HIDDEN
370
    13
390
5
  0
LAYER
  5
2370
102
{ACAD_XDICTIONARY
360
242A
102
}
330
1FAB
100
AcDbSymbolTableRecord
100
AcDbLayerTableRecord
  2
中心線
 70
     0
 62
     1
  6
CENTER
370
     5
390
5
  0
LAYER
  5
2380
102
{ACAD_XDICTIONARY
360
242C
102
}
330
1FAB
100
AcDbSymbolTableRecord
100
AcDbLayerTableRecord
  2
嵩上断面
 70
     0
 62
   112
  6
Continuous
370
    13
390
5
  0
ENDTAB
  0
TABLE
  2
STYLE
  5
1FAC
330
0
100
AcDbSymbolTable
 70
     1
  0
STYLE
  5
9
330
1FAC
100
AcDbSymbolTableRecord
100
AcDbTextStyleTableRecord
  2
Standard
 70
     0
 40
0.0
 41
1.0
 50
0.0
 71
     0
 42
2.5
  3

  4

1001
ACAD
1000
MS Gothic
1071
    32817
  0
ENDTAB
  0
TABLE
  2
VIEW
  5
1FB1
330
0
100
AcDbSymbolTable
 70
     0
  0
ENDTAB
  0
TABLE
  2
UCS
  5
1FB2
330
0
100
AcDbSymbolTable
 70
     0
  0
ENDTAB
  0
TABLE
  2
APPID
  5
1FB5
330
0
100
AcDbSymbolTable
 70
     5
  0
APPID
  5
A
330
1FB5
100
AcDbSymbolTableRecord
100
AcDbRegAppTableRecord
  2
ACAD
 70
     0
  0
APPID
  5
242E
330
1FB5
100
AcDbSymbolTableRecord
100
AcDbRegAppTableRecord
  2
ACAD_NAV_VCDISPLAY
 70
     0
  0
APPID
  5
246F
330
1FB5
100
AcDbSymbolTableRecord
100
AcDbRegAppTableRecord
  2
ACAD_MLEADERVER
 70
     0
  0
APPID
  5
25BC
330
1FB5
100
AcDbSymbolTableRecord
100
AcDbRegAppTableRecord
  2
ACAD_EXEMPT_FROM_CAD_STANDARDS
 70
     0
  0
APPID
  5
25C1
330
1FB5
100
AcDbSymbolTableRecord
100
AcDbRegAppTableRecord
  2
AcLayerTools
 70
     0
  0
ENDTAB
  0
TABLE
  2
DIMSTYLE
  5
1FB6
330
0
100
AcDbSymbolTable
 70
     2
100
AcDbDimStyleTable
 71
     1
340
BF
  0
DIMSTYLE
105
BF
102
{ACAD_REACTORS
330
BE
330
D3
330
E0
330
F7
330
106
330
113
330
122
330
277
330
1F8C
102
}
330
1FB6
100
AcDbSymbolTableRecord
100
AcDbDimStyleTableRecord
  2
ISO-25
 70
     0
 40
10.0
 41
1.5
 42
2.0
 43
3.75
 44
1.5
 73
     0
 74
     0
 77
     1
 78
     8
140
3.0
141
2.5
143
0.03937007874016
147
0.5
171
     3
172
     1
271
     2
272
     2
274
     3
283
     0
284
     8
289
     0
340
9
341
C0
342
C0
  0
DIMSTYLE
105
2352
330
1FB6
100
AcDbSymbolTableRecord
100
AcDbDimStyleTableRecord
  2
Standard
 70
     0
340
9
  0
ENDTAB
  0
TABLE
  2
BLOCK_RECORD
  5
1
330
0
100
AcDbSymbolTable
 70
    20
  0
BLOCK_RECORD
  5
2
102
{ACAD_XDICTIONARY
360
1F99
102
}
330
1
100
AcDbSymbolTableRecord
100
AcDbBlockTableRecord
  2
*Model_Space
340
1F9D
  0
BLOCK_RECORD
  5
1F9F
102
{ACAD_XDICTIONARY
360
1FA0
102
}
330
1
100
AcDbSymbolTableRecord
100
AcDbBlockTableRecord
  2
*Paper_Space
340
1FA4
  0
BLOCK_RECORD
  5
1FA5
102
{ACAD_XDICTIONARY
360
1FA6
102
}
330
1
100
AcDbSymbolTableRecord
100
AcDbBlockTableRecord
  2
*Paper_Space0
340
1FAA
  0
BLOCK_RECORD
  5
C0
330
1
100
AcDbSymbolTableRecord
100
AcDbBlockTableRecord
  2
_Open30
340
0
102
{BLKREFS
331
1F91
331
1F92
331
238D
331
238E
331
2396
331
2397
331
23A1
331
23A2
331
23AA
331
23AB
331
24F4
331
24F5
331
E5
331
E6
331
11A
331
11B
331
127
331
128
331
2813
331
2814
102
}
  0
BLOCK_RECORD
  5
C6
330
1
100
AcDbSymbolTableRecord
100
AcDbBlockTableRecord
  2
*D2
340
0
  0
BLOCK_RECORD
  5
D4
330
1
100
AcDbSymbolTableRecord
100
AcDbBlockTableRecord
  2
*D3
340
0
  0
BLOCK_RECORD
  5
E1
330
1
100
AcDbSymbolTableRecord
100
AcDbBlockTableRecord
  2
*D4
340
0
  0
BLOCK_RECORD
  5
F8
330
1
100
AcDbSymbolTableRecord
100
AcDbBlockTableRecord
  2
*D5
340
0
  0
BLOCK_RECORD
  5
107
330
1
100
AcDbSymbolTableRecord
100
AcDbBlockTableRecord
  2
*D6
340
0
  0
BLOCK_RECORD
  5
114
330
1
100
AcDbSymbolTableRecord
100
AcDbBlockTableRecord
  2
*D7
340
0
  0
BLOCK_RECORD
  5
123
330
1
100
AcDbSymbolTableRecord
100
AcDbBlockTableRecord
  2
*D8
340
0
  0
BLOCK_RECORD
  5
278
330
1
100
AcDbSymbolTableRecord
100
AcDbBlockTableRecord
  2
*D9
340
0
  0
BLOCK_RECORD
  5
1F8D
330
1
100
AcDbSymbolTableRecord
100
AcDbBlockTableRecord
  2
*D10
340
0
  0
BLOCK_RECORD
  5
2353
330
1
100
AcDbSymbolTableRecord
100
AcDbBlockTableRecord
  2
P-H65
340
0
102
{BLKREFS
331
2361
331
2362
102
}
  0
BLOCK_RECORD
  5
2488
102
{ACAD_XDICTIONARY
360
2489
102
}
330
1
100
AcDbSymbolTableRecord
100
AcDbBlockTableRecord
  2
鎌下
340
0
102
{BLKREFS
331
249A
102
}
1001
ACAD
1000
DesignCenter Data
1002
{
1070
     1
1070
     4
1002
}
  0
BLOCK_RECORD
  5
25A9
102
{ACAD_XDICTIONARY
360
25B4
102
}
330
1
100
AcDbSymbolTableRecord
100
AcDbBlockTableRecord
  2
GFB新
340
0
102
{BLKREFS
331
25B7
102
}
1001
ACAD
1000
DesignCenter Data
1002
{
1070
     1
1070
     4
1002
}
  0
BLOCK_RECORD
  5
25C3
102
{ACAD_REACTORS
330
25D9
102
}
330
1
100
AcDbSymbolTableRecord
100
AcDbBlockTableRecord
  2
*U14
340
0
102
{BLKREFS
331
25F0
331
25F1
331
25F2
331
25F3
331
25F4
331
25F5
331
25F6
331
25F7
331
25F8
331
25F9
331
25FA
331
25FB
331
25FC
331
25FD
331
25FE
331
25FF
331
2600
331
2601
331
2602
331
2603
331
2604
331
2605
331
2606
331
2607
331
2608
331
2609
331
260A
331
260B
331
260C
331
260D
331
260E
331
260F
331
2610
331
2611
331
2612
331
2613
331
2614
331
2615
331
2616
331
2617
331
2618
331
2619
331
261A
331
261B
331
261C
331
261D
331
261E
331
261F
331
2620
331
2621
331
2622
331
2623
331
2624
331
2625
331
2626
331
2627
331
2628
331
2629
331
262A
331
25DD
331
25DE
331
25DF
331
25E0
331
25E1
331
25E2
331
25E3
331
25E4
331
25E5
331
25E6
331
25E7
331
25E8
331
25E9
331
25EA
331
25EB
331
25EC
331
25ED
331
25EE
331
25EF
102
}
  0
BLOCK_RECORD
  5
25C6
102
{ACAD_XDICTIONARY
360
2800
102
}
102
{ACAD_REACTORS
330
25D8
102
}
330
1
100
AcDbSymbolTableRecord
100
AcDbBlockTableRecord
  2
*U15
340
0
102
{BLKREFS
331
25C9
102
}
  0
BLOCK_RECORD
  5
26F4
102
{ACAD_REACTORS
330
2761
102
}
330
1
100
AcDbSymbolTableRecord
100
AcDbBlockTableRecord
  2
*U16
340
0
102
{BLKREFS
331
2765
331
2766
331
2767
331
2768
331
2769
331
276A
331
276B
331
276C
331
276D
331
276E
331
276F
331
2770
331
2771
331
2772
331
2773
331
2774
331
2775
331
2776
331
2777
331
2778
331
2779
331
277A
331
277B
331
277C
331
277D
331
277E
331
277F
331
2780
331
2781
331
2782
331
2783
331
2784
331
2785
331
2786
331
2787
331
2788
331
2789
331
278A
331
278B
331
278C
331
278D
331
278E
331
278F
331
2790
331
2791
331
2792
331
2793
331
2794
331
2795
331
2796
331
2797
331
2798
331
2799
331
279A
331
279B
331
279C
331
279D
331
279E
331
279F
331
27A0
331
27A1
331
27A2
331
27A3
331
27A4
331
27A5
331
27A6
331
27A7
331
27A8
331
27A9
331
27AA
331
27AB
331
27AC
331
27AD
331
27AE
331
27AF
331
27B0
331
27B1
331
27B2
102
}
  0
BLOCK_RECORD
  5
26F7
102
{ACAD_XDICTIONARY
360
2803
102
}
102
{ACAD_REACTORS
330
2760
102
}
330
1
100
AcDbSymbolTableRecord
100
AcDbBlockTableRecord
  2
*U17
340
0
102
{BLKREFS
331
26FA
102
}
  0
BLOCK_RECORD
  5
280C
330
1
100
AcDbSymbolTableRecord
100
AcDbBlockTableRecord
  2
*D18
340
0
  0
BLOCK_RECORD
  5
281A
102
{ACAD_XDICTIONARY
360
281C
102
}
330
1
100
AcDbSymbolTableRecord
100
AcDbBlockTableRecord
  2
A$C3B5E25B0
340
0
1001
ACAD
1000
DesignCenter Data
1002
{
1070
     1
1070
     4
1002
}
  0
ENDTAB
  0
ENDSEC
  0
SECTION
  2
BLOCKS
  0
BLOCK
  5
1F9B
330
2
100
AcDbEntity
  8
0
100
AcDbBlockBegin
  2
*Model_Space
 70
     0
 10
0.0
 20
0.0
 30
0.0
  3
*Model_Space
  1

  0
ENDBLK
  5
1F9C
330
2
100
AcDbEntity
  8
0
100
AcDbBlockEnd
  0
BLOCK
  5
1FA2
330
1F9F
100
AcDbEntity
 67
     1
  8
0
100
AcDbBlockBegin
  2
*Paper_Space
 70
     0
 10
0.0
 20
0.0
 30
0.0
  3
*Paper_Space
  1

  0
ENDBLK
  5
1FA3
330
1F9F
100
AcDbEntity
 67
     1
  8
0
100
AcDbBlockEnd
  0
BLOCK
  5
1FA8
330
1FA5
100
AcDbEntity
 67
     1
  8
0
100
AcDbBlockBegin
  2
*Paper_Space0
 70
     0
 10
0.0
 20
0.0
 30
0.0
  3
*Paper_Space0
  1

  0
ENDBLK
  5
1FA9
330
1FA5
100
AcDbEntity
 67
     1
  8
0
100
AcDbBlockEnd
  0
BLOCK
  5
C4
330
C0
100
AcDbEntity
  8
0
100
AcDbBlockBegin
  2
_Open30
 70
     0
 10
0.0
 20
0.0
 30
0.0
  3
_Open30
  1

  0
LINE
  5
C1
330
C0
100
AcDbEntity
  8
0
  6
ByBlock
 62
     0
370
    -2
100
AcDbLine
 10
-1.0
 20
0.26794919
 30
0.0
 11
0.0
 21
0.0
 31
0.0
  0
LINE
  5
C2
330
C0
100
AcDbEntity
  8
0
  6
ByBlock
 62
     0
370
    -2
100
AcDbLine
 10
0.0
 20
0.0
 30
0.0
 11
-1.0
 21
-0.26794919
 31
0.0
  0
LINE
  5
C3
330
C0
100
AcDbEntity
  8
0
  6
ByBlock
 62
     0
370
    -2
100
AcDbLine
 10
0.0
 20
0.0
 30
0.0
 11
-1.0
 21
0.0
 31
0.0
  0
ENDBLK
  5
C5
330
C0
100
AcDbEntity
  8
0
100
AcDbBlockEnd
  0
BLOCK
  5
D1
330
C6
100
AcDbEntity
  8
0
 48
3.0
100
AcDbBlockBegin
  2
*D2
 70
     1
 10
0.0
 20
0.0
 30
0.0
  3
*D2
  1

  0
LINE
  5
23A7
330
C6
100
AcDbEntity
  8
寸法線
  6
Continuous
 62
     0
 48
3.0
370
    -2
100
AcDbLine
 10
1973.583006492849
 20
1700.371639603063
 30
0.0
 11
1818.58300649285
 21
1700.371639603063
 31
0.0
  0
LINE
  5
23A8
330
C6
100
AcDbEntity
  8
寸法線
  6
Continuous
 62
     0
 48
3.0
370
    -2
100
AcDbLine
 10
1973.583006492849
 20
1070.371639603063
 30
0.0
 11
1818.583006492849
 21
1070.371639603063
 31
0.0
  0
LINE
  5
23A9
330
C6
100
AcDbEntity
  8
寸法線
  6
Continuous
 62
     0
 48
3.0
370
    -2
100
AcDbLine
 10
1833.583006492849
 20
1685.371639603063
 30
0.0
 11
1833.583006492849
 21
1085.371639603063
 31
0.0
  0
INSERT
  5
23AA
330
C6
100
AcDbEntity
  8
寸法線
  6
Continuous
 62
     0
 48
3.0
370
    -2
100
AcDbBlockReference
  2
_Open30
 10
1833.583006492849
 20
1700.371639603063
 30
0.0
 41
15.0
 42
15.0
 43
15.0
 50
90.0
  0
INSERT
  5
23AB
330
C6
100
AcDbEntity
  8
寸法線
  6
Continuous
 62
     0
 48
3.0
370
    -2
100
AcDbBlockReference
  2
_Open30
 10
1833.583006492849
 20
1070.371639603063
 30
0.0
 41
15.0
 42
15.0
 43
15.0
 50
270.0
  0
MTEXT
  5
23AC
330
C6
100
AcDbEntity
  8
寸法線
  6
Continuous
 62
     0
 48
3.0
100
AcDbMText
 10
1813.583006492849
 20
1385.371639603064
 30
0.0
 40
30.0
 41
0.0
 71
     5
 72
     1
  1
630
 11
0.0000000000000001
 21
1.0
 31
0.0
 73
     1
 44
1.0
1001
ACAD
1000
MTEXTBEGIN
1070
    73
1070
     1
1070
    44
1040
1.0
1070
    74
1070
     0
1000
MTEXTEND
  0
POINT
  5
23AD
330
C6
100
AcDbEntity
  8
Defpoints
  6
Continuous
 62
     0
 48
3.0
100
AcDbPoint
 10
1993.583006492849
 20
1700.371639603063
 30
0.0
  0
POINT
  5
23AE
330
C6
100
AcDbEntity
  8
Defpoints
  6
Continuous
 62
     0
 48
3.0
100
AcDbPoint
 10
1993.583006492849
 20
1070.371639603063
 30
0.0
  0
POINT
  5
23AF
330
C6
100
AcDbEntity
  8
Defpoints
  6
Continuous
 62
     0
 48
3.0
100
AcDbPoint
 10
1833.583006492849
 20
1070.371639603063
 30
0.0
  0
ENDBLK
  5
D2
330
C6
100
AcDbEntity
  8
0
 48
3.0
100
AcDbBlockEnd
  0
BLOCK
  5
DE
330
D4
100
AcDbEntity
  8
0
 48
3.0
100
AcDbBlockBegin
  2
*D3
 70
     1
 10
0.0
 20
0.0
 30
0.0
  3
*D3
  1

  0
LINE
  5
24F1
330
D4
100
AcDbEntity
  8
寸法線
  6
Continuous
 62
     0
370
    -2
100
AcDbLine
 10
1971.08310649285
 20
1635.371639603063
 30
0.0
 11
1898.583006492849
 21
1635.371639603063
 31
0.0
  0
LINE
  5
24F2
330
D4
100
AcDbEntity
  8
寸法線
  6
Continuous
 62
     0
370
    -2
100
AcDbLine
 10
1971.08310649285
 20
1535.371639603063
 30
0.0
 11
1898.583006492849
 21
1535.371639603063
 31
0.0
  0
LINE
  5
24F3
330
D4
100
AcDbEntity
  8
寸法線
  6
Continuous
 62
     0
370
    -2
100
AcDbLine
 10
1913.583006492849
 20
1620.371639603063
 30
0.0
 11
1913.583006492849
 21
1550.371639603063
 31
0.0
  0
INSERT
  5
24F4
330
D4
100
AcDbEntity
  8
寸法線
  6
Continuous
 62
     0
370
    -2
100
AcDbBlockReference
  2
_Open30
 10
1913.583006492849
 20
1635.371639603063
 30
0.0
 41
15.0
 42
15.0
 43
15.0
 50
90.0
  0
INSERT
  5
24F5
330
D4
100
AcDbEntity
  8
寸法線
  6
Continuous
 62
     0
370
    -2
100
AcDbBlockReference
  2
_Open30
 10
1913.583006492849
 20
1535.371639603063
 30
0.0
 41
15.0
 42
15.0
 43
15.0
 50
270.0
  0
MTEXT
  5
24F6
330
D4
100
AcDbEntity
  8
寸法線
  6
Continuous
 62
     0
100
AcDbMText
 10
1893.583006492849
 20
1585.371639603063
 30
0.0
 40
30.0
 41
0.0
 71
     5
 72
     1
  1
100
 11
0.0000000000000001
 21
1.0
 31
0.0
 73
     1
 44
1.0
1001
ACAD
1000
MTEXTBEGIN
1070
    73
1070
     1
1070
    44
1040
1.0
1070
    74
1070
     0
1000
MTEXTEND
  0
POINT
  5
24F7
330
D4
100
AcDbEntity
  8
Defpoints
  6
Continuous
 62
     0
100
AcDbPoint
 10
1991.083106492849
 20
1635.371639603063
 30
0.0
  0
POINT
  5
24F8
330
D4
100
AcDbEntity
  8
Defpoints
  6
Continuous
 62
     0
100
AcDbPoint
 10
1991.083106492849
 20
1535.371639603063
 30
0.0
  0
POINT
  5
24F9
330
D4
100
AcDbEntity
  8
Defpoints
  6
Continuous
 62
     0
100
AcDbPoint
 10
1913.583006492849
 20
1535.371639603063
 30
0.0
  0
ENDBLK
  5
DF
330
D4
100
AcDbEntity
  8
0
 48
3.0
100
AcDbBlockEnd
  0
BLOCK
  5
EB
330
E1
100
AcDbEntity
  8
0
 48
3.0
100
AcDbBlockBegin
  2
*D4
 70
     1
 10
0.0
 20
0.0
 30
0.0
  3
*D4
  1

  0
LINE
  5
E2
330
E1
100
AcDbEntity
  8
寸法線
  6
Continuous
 62
     0
 48
3.0
370
    -2
100
AcDbLine
 10
2107.583003492849
 20
1690.371640603063
 30
0.0
 11
2202.56639209405
 21
1690.371640603063
 31
0.0
  0
LINE
  5
E3
330
E1
100
AcDbEntity
  8
寸法線
  6
Continuous
 62
     0
 48
3.0
370
    -2
100
AcDbLine
 10
2107.583003492849
 20
1080.371638603064
 30
0.0
 11
2202.56639209405
 21
1080.371638603064
 31
0.0
  0
LINE
  5
E4
330
E1
100
AcDbEntity
  8
寸法線
  6
Continuous
 62
     0
 48
3.0
370
    -2
100
AcDbLine
 10
2187.56639209405
 20
1675.371640603064
 30
0.0
 11
2187.56639209405
 21
1095.371638603064
 31
0.0
  0
INSERT
  5
E5
330
E1
100
AcDbEntity
  8
寸法線
  6
Continuous
 62
     0
 48
3.0
370
    -2
100
AcDbBlockReference
  2
_Open30
 10
2187.56639209405
 20
1690.371640603063
 30
0.0
 41
15.0
 42
15.0
 43
15.0
 50
90.0
  0
INSERT
  5
E6
330
E1
100
AcDbEntity
  8
寸法線
  6
Continuous
 62
     0
 48
3.0
370
    -2
100
AcDbBlockReference
  2
_Open30
 10
2187.56639209405
 20
1080.371638603064
 30
0.0
 41
15.0
 42
15.0
 43
15.0
 50
270.0
  0
MTEXT
  5
E7
330
E1
100
AcDbEntity
  8
寸法線
  6
Continuous
 62
     0
 48
3.0
100
AcDbMText
 10
2167.566392094049
 20
1385.371639603064
 30
0.0
 40
30.0
 41
0.0
 71
     5
 72
     1
  1
610
 11
0.0000000000000001
 21
1.0
 31
0.0
 73
     1
 44
1.0
1001
ACAD
1000
MTEXTBEGIN
1070
    73
1070
     1
1070
    44
1040
1.0
1070
    74
1070
     0
1000
MTEXTEND
  0
POINT
  5
E8
330
E1
100
AcDbEntity
  8
Defpoints
  6
Continuous
 62
     0
 48
3.0
100
AcDbPoint
 10
2087.583003492849
 20
1690.371640603063
 30
0.0
  0
POINT
  5
E9
330
E1
100
AcDbEntity
  8
Defpoints
  6
Continuous
 62
     0
 48
3.0
100
AcDbPoint
 10
2087.583003492849
 20
1080.371638603064
 30
0.0
  0
POINT
  5
EA
330
E1
100
AcDbEntity
  8
Defpoints
  6
Continuous
 62
     0
 48
3.0
100
AcDbPoint
 10
2187.56639209405
 20
1080.371638603064
 30
0.0
  0
ENDBLK
  5
EC
330
E1
100
AcDbEntity
  8
0
 48
3.0
100
AcDbBlockEnd
  0
BLOCK
  5
104
330
F8
100
AcDbEntity
  8
0
 48
3.0
100
AcDbBlockBegin
  2
*D5
 70
     1
 10
0.0
 20
0.0
 30
0.0
  3
*D5
  1

  0
LINE
  5
239C
330
F8
100
AcDbEntity
  8
寸法線
  6
Continuous
 62
     0
 48
3.0
370
    -2
100
AcDbLine
 10
1247.349212186082
 20
678.4054882922978
 30
0.0
 11
1247.349212186082
 21
753.380821908627
 31
0.0
  0
LINE
  5
239D
330
F8
100
AcDbEntity
  8
寸法線
  6
Continuous
 62
     0
 48
3.0
370
    -2
100
AcDbLine
 10
1259.880857786082
 20
678.4054882922978
 30
0.0
 11
1259.880857786082
 21
753.380821908627
 31
0.0
  0
LINE
  5
239E
330
F8
100
AcDbEntity
  8
寸法線
  6
Continuous
 62
     0
 48
3.0
370
    -2
100
AcDbLine
 10
1232.349212186082
 20
738.380821908627
 30
0.0
 11
1217.349212186082
 21
738.380821908627
 31
0.0
  0
LINE
  5
239F
330
F8
100
AcDbEntity
  8
寸法線
  6
Continuous
 62
     0
 48
3.0
370
    -2
100
AcDbLine
 10
1274.880857786082
 20
738.380821908627
 30
0.0
 11
1371.759030374915
 21
738.380821908627
 31
0.0
  0
LINE
  5
23A0
330
F8
100
AcDbEntity
  8
寸法線
  6
Continuous
 62
     0
 48
3.0
370
    -2
100
AcDbLine
 10
1247.349212186082
 20
738.380821908627
 30
0.0
 11
1259.880857786082
 21
738.380821908627
 31
0.0
  0
INSERT
  5
23A1
330
F8
100
AcDbEntity
  8
寸法線
  6
Continuous
 62
     0
 48
3.0
370
    -2
100
AcDbBlockReference
  2
_Open30
 10
1247.349212186082
 20
738.380821908627
 30
0.0
 41
15.0
 42
15.0
 43
15.0
  0
INSERT
  5
23A2
330
F8
100
AcDbEntity
  8
寸法線
  6
Continuous
 62
     0
 48
3.0
370
    -2
100
AcDbBlockReference
  2
_Open30
 10
1259.880857786082
 20
738.380821908627
 30
0.0
 41
15.0
 42
15.0
 43
15.0
 50
180.0
  0
MTEXT
  5
23A3
330
F8
100
AcDbEntity
  8
寸法線
  6
Continuous
 62
     0
 48
3.0
100
AcDbMText
 10
1330.819944080499
 20
758.380821908627
 30
0.0
 40
30.0
 41
0.0
 71
     5
 72
     1
  1
12.5
 73
     1
 44
1.0
1001
ACAD
1000
MTEXTBEGIN
1070
    73
1070
     1
1070
    44
1040
1.0
1070
    74
1070
     0
1000
MTEXTEND
  0
POINT
  5
23A4
330
F8
100
AcDbEntity
  8
Defpoints
  6
Continuous
 62
     0
 48
3.0
100
AcDbPoint
 10
1247.349212186082
 20
658.4054882922978
 30
0.0
  0
POINT
  5
23A5
330
F8
100
AcDbEntity
  8
Defpoints
  6
Continuous
 62
     0
 48
3.0
100
AcDbPoint
 10
1259.880857786082
 20
658.4054882922978
 30
0.0
  0
POINT
  5
23A6
330
F8
100
AcDbEntity
  8
Defpoints
  6
Continuous
 62
     0
 48
3.0
100
AcDbPoint
 10
1259.880857786082
 20
738.380821908627
 30
0.0
  0
ENDBLK
  5
105
330
F8
100
AcDbEntity
  8
0
 48
3.0
100
AcDbBlockEnd
  0
BLOCK
  5
111
330
107
100
AcDbEntity
  8
0
 48
3.0
100
AcDbBlockBegin
  2
*D6
 70
     1
 10
0.0
 20
0.0
 30
0.0
  3
*D6
  1

  0
LINE
  5
238A
330
107
100
AcDbEntity
  8
寸法線
  6
Continuous
 62
     0
 48
3.0
370
    -2
100
AcDbLine
 10
432.146682186083
 20
541.380821908627
 30
0.0
 11
432.146682186083
 21
466.380821908627
 31
0.0
  0
LINE
  5
238B
330
107
100
AcDbEntity
  8
寸法線
  6
Continuous
 62
     0
 48
3.0
370
    -2
100
AcDbLine
 10
1422.146682186083
 20
541.380821908627
 30
0.0
 11
1422.146682186083
 21
466.380821908627
 31
0.0
  0
LINE
  5
238C
330
107
100
AcDbEntity
  8
寸法線
  6
Continuous
 62
     0
 48
3.0
370
    -2
100
AcDbLine
 10
447.1466821860831
 20
481.3808219086269
 30
0.0
 11
1407.146682186083
 21
481.3808219086269
 31
0.0
  0
INSERT
  5
238D
330
107
100
AcDbEntity
  8
寸法線
  6
Continuous
 62
     0
 48
3.0
370
    -2
100
AcDbBlockReference
  2
_Open30
 10
432.146682186083
 20
481.3808219086269
 30
0.0
 41
15.0
 42
15.0
 43
15.0
 50
180.0
  0
INSERT
  5
238E
330
107
100
AcDbEntity
  8
寸法線
  6
Continuous
 62
     0
 48
3.0
370
    -2
100
AcDbBlockReference
  2
_Open30
 10
1422.146682186083
 20
481.3808219086269
 30
0.0
 41
15.0
 42
15.0
 43
15.0
  0
MTEXT
  5
238F
330
107
100
AcDbEntity
  8
寸法線
  6
Continuous
 62
     0
 48
3.0
100
AcDbMText
 10
927.1466821860832
 20
501.380821908627
 30
0.0
 40
30.0
 41
0.0
 71
     5
 72
     1
  1
990
 73
     1
 44
1.0
1001
ACAD
1000
MTEXTBEGIN
1070
    73
1070
     1
1070
    44
1040
1.0
1070
    74
1070
     0
1000
MTEXTEND
  0
POINT
  5
2390
330
107
100
AcDbEntity
  8
Defpoints
  6
Continuous
 62
     0
 48
3.0
100
AcDbPoint
 10
432.146682186083
 20
561.380821908627
 30
0.0
  0
POINT
  5
2391
330
107
100
AcDbEntity
  8
Defpoints
  6
Continuous
 62
     0
 48
3.0
100
AcDbPoint
 10
1422.146682186083
 20
561.380821908627
 30
0.0
  0
POINT
  5
2392
330
107
100
AcDbEntity
  8
Defpoints
  6
Continuous
 62
     0
 48
3.0
100
AcDbPoint
 10
1422.146682186083
 20
481.3808219086269
 30
0.0
  0
ENDBLK
  5
112
330
107
100
AcDbEntity
  8
0
 48
3.0
100
AcDbBlockEnd
  0
BLOCK
  5
120
330
114
100
AcDbEntity
  8
0
 48
3.0
100
AcDbBlockBegin
  2
*D7
 70
     1
 10
0.0
 20
0.0
 30
0.0
  3
*D7
  1

  0
LINE
  5
115
330
114
100
AcDbEntity
  8
寸法線
  6
Continuous
 62
     0
 48
3.0
370
    -2
100
AcDbLine
 10
1442.146682186083
 20
626.380821908627
 30
0.0
 11
1537.029197627396
 21
626.380821908627
 31
0.0
  0
LINE
  5
116
330
114
100
AcDbEntity
  8
寸法線
  6
Continuous
 62
     0
 48
3.0
370
    -2
100
AcDbLine
 10
1441.646680186082
 20
658.380821908627
 30
0.0
 11
1537.029197627396
 21
658.380821908627
 31
0.0
  0
LINE
  5
117
330
114
100
AcDbEntity
  8
寸法線
  6
Continuous
 62
     0
 48
3.0
370
    -2
100
AcDbLine
 10
1522.029197627396
 20
611.380821908627
 30
0.0
 11
1522.029197627396
 21
596.380821908627
 31
0.0
  0
LINE
  5
118
330
114
100
AcDbEntity
  8
寸法線
  6
Continuous
 62
     0
 48
3.0
370
    -2
100
AcDbLine
 10
1522.029197627396
 20
673.380821908627
 30
0.0
 11
1522.029197627396
 21
733.5584868832462
 31
0.0
  0
LINE
  5
119
330
114
100
AcDbEntity
  8
寸法線
  6
Continuous
 62
     0
 48
3.0
370
    -2
100
AcDbLine
 10
1522.029197627396
 20
626.380821908627
 30
0.0
 11
1522.029197627396
 21
658.380821908627
 31
0.0
  0
INSERT
  5
11A
330
114
100
AcDbEntity
  8
寸法線
  6
Continuous
 62
     0
 48
3.0
370
    -2
100
AcDbBlockReference
  2
_Open30
 10
1522.029197627396
 20
626.380821908627
 30
0.0
 41
15.0
 42
15.0
 43
15.0
 50
90.0
  0
INSERT
  5
11B
330
114
100
AcDbEntity
  8
寸法線
  6
Continuous
 62
     0
 48
3.0
370
    -2
100
AcDbBlockReference
  2
_Open30
 10
1522.029197627396
 20
658.380821908627
 30
0.0
 41
15.0
 42
15.0
 43
15.0
 50
270.0
  0
MTEXT
  5
11C
330
114
100
AcDbEntity
  8
寸法線
  6
Continuous
 62
     0
 48
3.0
100
AcDbMText
 10
1502.029197627396
 20
710.9696543959369
 30
0.0
 40
30.0
 41
0.0
 71
     5
 72
     1
  1
32
 11
0.0000000000000001
 21
1.0
 31
0.0
 73
     1
 44
1.0
1001
ACAD
1000
MTEXTBEGIN
1070
    73
1070
     1
1070
    44
1040
1.0
1070
    74
1070
     0
1000
MTEXTEND
  0
POINT
  5
11D
330
114
100
AcDbEntity
  8
Defpoints
  6
Continuous
 62
     0
 48
3.0
100
AcDbPoint
 10
1422.146682186083
 20
626.380821908627
 30
0.0
  0
POINT
  5
11E
330
114
100
AcDbEntity
  8
Defpoints
  6
Continuous
 62
     0
 48
3.0
100
AcDbPoint
 10
1421.646680186082
 20
658.380821908627
 30
0.0
  0
POINT
  5
11F
330
114
100
AcDbEntity
  8
Defpoints
  6
Continuous
 62
     0
 48
3.0
100
AcDbPoint
 10
1522.029197627396
 20
658.380821908627
 30
0.0
  0
ENDBLK
  5
121
330
114
100
AcDbEntity
  8
0
 48
3.0
100
AcDbBlockEnd
  0
BLOCK
  5
12D
330
123
100
AcDbEntity
  8
0
 48
3.0
100
AcDbBlockBegin
  2
*D8
 70
     1
 10
0.0
 20
0.0
 30
0.0
  3
*D8
  1

  0
LINE
  5
124
330
123
100
AcDbEntity
  8
寸法線
  6
Continuous
 62
     0
 48
3.0
370
    -2
100
AcDbLine
 10
1441.646680186082
 20
658.380821908627
 30
0.0
 11
1637.118658980798
 21
658.380821908627
 31
0.0
  0
LINE
  5
125
330
123
100
AcDbEntity
  8
寸法線
  6
Continuous
 62
     0
 48
3.0
370
    -2
100
AcDbLine
 10
1442.146682186083
 20
561.380821908627
 30
0.0
 11
1637.118658980798
 21
561.380821908627
 31
0.0
  0
LINE
  5
126
330
123
100
AcDbEntity
  8
寸法線
  6
Continuous
 62
     0
 48
3.0
370
    -2
100
AcDbLine
 10
1622.118658980798
 20
643.3808219086269
 30
0.0
 11
1622.118658980798
 21
576.380821908627
 31
0.0
  0
INSERT
  5
127
330
123
100
AcDbEntity
  8
寸法線
  6
Continuous
 62
     0
 48
3.0
370
    -2
100
AcDbBlockReference
  2
_Open30
 10
1622.118658980798
 20
658.380821908627
 30
0.0
 41
15.0
 42
15.0
 43
15.0
 50
90.0
  0
INSERT
  5
128
330
123
100
AcDbEntity
  8
寸法線
  6
Continuous
 62
     0
 48
3.0
370
    -2
100
AcDbBlockReference
  2
_Open30
 10
1622.118658980798
 20
561.380821908627
 30
0.0
 41
15.0
 42
15.0
 43
15.0
 50
270.0
  0
MTEXT
  5
129
330
123
100
AcDbEntity
  8
寸法線
  6
Continuous
 62
     0
 48
3.0
100
AcDbMText
 10
1602.118658980798
 20
609.8808219086272
 30
0.0
 40
30.0
 41
0.0
 71
     5
 72
     1
  1
97
 11
0.0000000000000001
 21
1.0
 31
0.0
 73
     1
 44
1.0
1001
ACAD
1000
MTEXTBEGIN
1070
    73
1070
     1
1070
    44
1040
1.0
1070
    74
1070
     0
1000
MTEXTEND
  0
POINT
  5
12A
330
123
100
AcDbEntity
  8
Defpoints
  6
Continuous
 62
     0
 48
3.0
100
AcDbPoint
 10
1421.646680186082
 20
658.380821908627
 30
0.0
  0
POINT
  5
12B
330
123
100
AcDbEntity
  8
Defpoints
  6
Continuous
 62
     0
 48
3.0
100
AcDbPoint
 10
1422.146682186083
 20
561.380821908627
 30
0.0
  0
POINT
  5
12C
330
123
100
AcDbEntity
  8
Defpoints
  6
Continuous
 62
     0
 48
3.0
100
AcDbPoint
 10
1622.118658980798
 20
561.380821908627
 30
0.0
  0
ENDBLK
  5
12E
330
123
100
AcDbEntity
  8
0
 48
3.0
100
AcDbBlockEnd
  0
BLOCK
  5
282
330
278
100
AcDbEntity
  8
0
 48
3.0
100
AcDbBlockBegin
  2
*D9
 70
     1
 10
0.0
 20
0.0
 30
0.0
  3
*D9
  1

  0
LINE
  5
2393
330
278
100
AcDbEntity
  8
寸法線
  6
Continuous
 62
     0
 48
3.0
370
    -2
100
AcDbLine
 10
1424.646680186082
 20
671.380821908627
 30
0.0
 11
1424.646680186082
 21
833.380821908627
 31
0.0
  0
LINE
  5
2394
330
278
100
AcDbEntity
  8
寸法線
  6
Continuous
 62
     0
 48
3.0
370
    -2
100
AcDbLine
 10
429.6466821860831
 20
671.380821908627
 30
0.0
 11
429.6466821860831
 21
833.380821908627
 31
0.0
  0
LINE
  5
2395
330
278
100
AcDbEntity
  8
寸法線
  6
Continuous
 62
     0
 48
3.0
370
    -2
100
AcDbLine
 10
1409.646680186082
 20
818.3808219086269
 30
0.0
 11
444.646682186083
 21
818.3808219086269
 31
0.0
  0
INSERT
  5
2396
330
278
100
AcDbEntity
  8
寸法線
  6
Continuous
 62
     0
 48
3.0
370
    -2
100
AcDbBlockReference
  2
_Open30
 10
1424.646680186082
 20
818.3808219086269
 30
0.0
 41
15.0
 42
15.0
 43
15.0
  0
INSERT
  5
2397
330
278
100
AcDbEntity
  8
寸法線
  6
Continuous
 62
     0
 48
3.0
370
    -2
100
AcDbBlockReference
  2
_Open30
 10
429.6466821860831
 20
818.3808219086269
 30
0.0
 41
15.0
 42
15.0
 43
15.0
 50
180.0
  0
MTEXT
  5
2398
330
278
100
AcDbEntity
  8
寸法線
  6
Continuous
 62
     0
 48
3.0
100
AcDbMText
 10
927.1466811860827
 20
838.3808219086271
 30
0.0
 40
30.0
 41
0.0
 71
     5
 72
     1
  1
995
 73
     1
 44
1.0
1001
ACAD
1000
MTEXTBEGIN
1070
    73
1070
     1
1070
    44
1040
1.0
1070
    74
1070
     0
1000
MTEXTEND
  0
POINT
  5
2399
330
278
100
AcDbEntity
  8
Defpoints
  6
Continuous
 62
     0
 48
3.0
100
AcDbPoint
 10
1424.646680186082
 20
651.380821908627
 30
0.0
  0
POINT
  5
239A
330
278
100
AcDbEntity
  8
Defpoints
  6
Continuous
 62
     0
 48
3.0
100
AcDbPoint
 10
429.6466821860831
 20
651.380821908627
 30
0.0
  0
POINT
  5
239B
330
278
100
AcDbEntity
  8
Defpoints
  6
Continuous
 62
     0
 48
3.0
100
AcDbPoint
 10
429.6466821860831
 20
818.3808219086269
 30
0.0
  0
ENDBLK
  5
283
330
278
100
AcDbEntity
  8
0
 48
3.0
100
AcDbBlockEnd
  0
BLOCK
  5
1F97
330
1F8D
100
AcDbEntity
  8
0
 48
3.0
100
AcDbBlockBegin
  2
*D10
 70
     1
 10
0.0
 20
0.0
 30
0.0
  3
*D10
  1

  0
LINE
  5
1F8E
330
1F8D
100
AcDbEntity
  8
寸法線
 62
     0
 48
3.0
370
    -2
100
AcDbLine
 10
1442.146682186083
 20
561.380821908627
 30
0.0
 11
1537.029197627396
 21
561.380821908627
 31
0.0
  0
LINE
  5
1F8F
330
1F8D
100
AcDbEntity
  8
寸法線
 62
     0
 48
3.0
370
    -2
100
AcDbLine
 10
1444.646680186082
 20
626.380821908627
 30
0.0
 11
1537.029197627396
 21
626.380821908627
 31
0.0
  0
LINE
  5
1F90
330
1F8D
100
AcDbEntity
  8
寸法線
 62
     0
 48
3.0
370
    -2
100
AcDbLine
 10
1522.029197627396
 20
576.380821908627
 30
0.0
 11
1522.029197627396
 21
611.380821908627
 31
0.0
  0
INSERT
  5
1F91
330
1F8D
100
AcDbEntity
  8
寸法線
 62
     0
 48
3.0
370
    -2
100
AcDbBlockReference
  2
_Open30
 10
1522.029197627396
 20
561.380821908627
 30
0.0
 41
15.0
 42
15.0
 43
15.0
 50
270.0
  0
INSERT
  5
1F92
330
1F8D
100
AcDbEntity
  8
寸法線
 62
     0
 48
3.0
370
    -2
100
AcDbBlockReference
  2
_Open30
 10
1522.029197627396
 20
626.380821908627
 30
0.0
 41
15.0
 42
15.0
 43
15.0
 50
90.0
  0
MTEXT
  5
1F93
330
1F8D
100
AcDbEntity
  8
寸法線
 62
     0
 48
3.0
100
AcDbMText
 10
1502.029197627396
 20
593.8808219086272
 30
0.0
 40
30.0
 41
0.0
 71
     5
 72
     1
  1
65
 11
0.0000000000000001
 21
1.0
 31
0.0
 73
     1
 44
1.0
1001
ACAD
1000
MTEXTBEGIN
1070
    73
1070
     1
1070
    44
1040
1.0
1070
    74
1070
     0
1000
MTEXTEND
  0
POINT
  5
1F94
330
1F8D
100
AcDbEntity
  8
Defpoints
 62
     0
 48
3.0
100
AcDbPoint
 10
1422.146682186083
 20
561.380821908627
 30
0.0
  0
POINT
  5
1F95
330
1F8D
100
AcDbEntity
  8
Defpoints
 62
     0
 48
3.0
100
AcDbPoint
 10
1424.646680186082
 20
626.380821908627
 30
0.0
  0
POINT
  5
1F96
330
1F8D
100
AcDbEntity
  8
Defpoints
 62
     0
 48
3.0
100
AcDbPoint
 10
1522.029197627396
 20
626.380821908627
 30
0.0
  0
ENDBLK
  5
1F98
330
1F8D
100
AcDbEntity
  8
0
 48
3.0
100
AcDbBlockEnd
  0
BLOCK
  5
235D
330
2353
100
AcDbEntity
  8
0
 48
3.0
100
AcDbBlockBegin
  2
P-H65
 70
     0
 10
0.0
 20
0.0
 30
0.0
  3
P-H65
  1

  0
LINE
  5
2354
330
2353
100
AcDbEntity
  8
0
100
AcDbLine
 10
2.999997
 20
0.000001
 30
0.0
 11
61.999997
 21
0.000001
 31
0.0
  0
LINE
  5
2355
330
2353
100
AcDbEntity
  8
0
100
AcDbLine
 10
-0.000003
 20
-2.999999
 30
0.0
 11
-0.000003
 21
-36.999999
 31
0.0
  0
LINE
  5
2356
330
2353
100
AcDbEntity
  8
0
100
AcDbLine
 10
2.999997
 20
-39.999999
 30
0.0
 11
61.999997
 21
-39.999999
 31
0.0
  0
ARC
  5
2357
330
2353
100
AcDbEntity
  8
0
100
AcDbCircle
 10
2.999997
 20
-36.999999
 30
0.0
 40
3.0
100
AcDbArc
 50
180.0
 51
270.0
  0
ARC
  5
2358
330
2353
100
AcDbEntity
  8
0
100
AcDbCircle
 10
2.999997
 20
-2.999999
 30
0.0
 40
3.0
100
AcDbArc
 50
90.0
 51
180.0
  0
LINE
  5
2359
330
2353
100
AcDbEntity
  8
0
100
AcDbLine
 10
64.999997
 20
-2.999999
 30
0.0
 11
64.999997
 21
-36.999999
 31
0.0
  0
ARC
  5
235A
330
2353
100
AcDbEntity
  8
0
100
AcDbCircle
 10
61.999997
 20
-2.999999
 30
0.0
 40
3.0
100
AcDbArc
 50
0.0
 51
90.0
  0
ARC
  5
235B
330
2353
100
AcDbEntity
  8
0
100
AcDbCircle
 10
61.999997
 20
-36.999999
 30
0.0
 40
3.0
100
AcDbArc
 50
270.0
 51
0.0
  0
LWPOLYLINE
  5
235C
330
2353
100
AcDbEntity
  8
0
  6
Continuous
100
AcDbPolyline
 90
        4
 70
     1
 43
0.0
 10
2.299996999999999
 20
-37.69999900000001
 10
62.69999699999999
 20
-37.69999900000001
 10
62.69999699999999
 20
-2.299998999999999
 10
2.299996999999999
 20
-2.299998999999999
  0
ENDBLK
  5
235E
330
2353
100
AcDbEntity
  8
0
 48
3.0
100
AcDbBlockEnd
  0
BLOCK
  5
248A
330
2488
100
AcDbEntity
  8
0
 48
3.0
100
AcDbBlockBegin
  2
鎌下
 70
     0
 10
0.0
 20
0.0
 30
0.0
  3
鎌下
  1

  0
MTEXT
  5
248B
330
2488
100
AcDbEntity
  8
外枠
  6
Continuous
100
AcDbMText
 10
40.55333581259037
 20
-88.14888116777728
 30
0.0
 40
28.17460800000001
 41
43.8527
 71
     1
 72
     5
  1
{\fHGSeikaishotaiPRO|b0|i0|c128|p65;下}
 73
     1
 44
1.0
1001
ACAD
1000
MTEXTBEGIN
1070
    73
1070
     1
1070
    44
1040
1.0
1070
    74
1070
     0
1000
MTEXTEND
  0
MTEXT
  5
248C
330
2488
100
AcDbEntity
  8
外枠
  6
Continuous
100
AcDbMText
 10
40.55333581259037
 20
-45.61885629864991
 30
0.0
 40
28.17460800000001
 41
43.8527
 71
     1
 72
     5
  1
{\fHGSeikaishotaiPRO|b0|i0|c128|p65;鎌}
 73
     1
 44
1.0
1001
ACAD
1000
MTEXTBEGIN
1070
    73
1070
     1
1070
    44
1040
1.0
1070
    74
1070
     0
1000
MTEXTEND
  0
ELLIPSE
  5
248D
330
2488
100
AcDbEntity
  8
外枠
  6
Continuous
100
AcDbEllipse
 10
61.68068686355036
 20
-84.59863033186412
 30
0.0
 11
0.0
 21
-47.8594442149426
 31
0.0
210
0.0
220
0.0
230
1.0
 40
0.7999999999999857
 41
0.0
 42
6.283185307179586
  0
ENDBLK
  5
248E
330
2488
100
AcDbEntity
  8
0
 48
3.0
100
AcDbBlockEnd
  0
BLOCK
  5
25B5
330
25A9
100
AcDbEntity
  8
0
 48
3.0
100
AcDbBlockBegin
  2
GFB新
 70
     0
 10
0.0
 20
0.0
 30
0.0
  3
GFB新
  1

  0
LINE
  5
25AA
330
25A9
100
AcDbEntity
  8
エンボス
370
     0
100
AcDbLine
 10
-201.8431163161554
 20
211.018054223251
 30
0.0
 11
-201.8431163161554
 21
31.01805422325097
 31
0.0
  0
LINE
  5
25AB
330
25A9
100
AcDbEntity
  8
エンボス
370
     0
100
AcDbLine
 10
-171.6031163161556
 20
211.018054223251
 30
0.0
 11
-171.6031163161556
 21
31.01805422325097
 31
0.0
  0
LWPOLYLINE
  5
25AC
330
25A9
100
AcDbEntity
  8
エンボス
  6
Continuous
100
AcDbPolyline
 90
        4
 70
     1
 43
0.0
 10
-348.415713090571
 20
299.7131911820901
 10
-14.10000000000036
 20
299.7131911820901
 10
-14.10000000000036
 20
13.47
 10
-348.415713090571
 20
13.47
  0
HATCH
  5
25AD
330
25A9
100
AcDbEntity
  8
エンボス
 48
3.0
100
AcDbHatch
 10
0.0
 20
0.0
 30
0.0
210
0.0
220
0.0
230
1.0
  2
ANSI31
 70
     0
 71
     0
 91
        2
 92
        7
 72
     0
 73
     1
 93
        4
 10
-171.6031163161556
 20
183.648232740995
 10
-201.8431163161554
 20
183.648232740995
 10
-201.8431163161554
 20
143.648232740995
 10
-171.6031163161556
 20
143.648232740995
 97
        0
 92
        7
 72
     0
 73
     1
 93
        4
 10
-171.6031163161551
 20
103.648232740995
 10
-201.8431163161554
 20
103.648232740995
 10
-201.8431163161554
 20
63.64823274099504
 10
-171.6031163161556
 20
63.64823274099504
 97
        0
 75
     0
 76
     1
 52
0.0
 41
1.0
 77
     0
 78
     1
 53
45.0
 43
-2600.230945379155
 44
55.27481481577524
 45
-2.245064030267287
 46
2.245064030267288
 79
     0
 47
0.6338635763914874
 98
        2
 10
-184.3538551621914
 20
165.9540090799865
 10
-180.5493471399022
 20
94.32742487381711
  0
LINE
  5
25AE
330
25A9
100
AcDbEntity
  8
エンボス
  6
Continuous
100
AcDbLine
 10
-201.8431163161554
 20
183.648232740995
 30
0.0
 11
-171.6031163161551
 21
183.648232740995
 31
0.0
  0
LINE
  5
25AF
330
25A9
100
AcDbEntity
  8
エンボス
  6
Continuous
100
AcDbLine
 10
-201.8431163161554
 20
143.648232740995
 30
0.0
 11
-171.6031163161551
 21
143.648232740995
 31
0.0
  0
LINE
  5
25B0
330
25A9
100
AcDbEntity
  8
エンボス
  6
Continuous
100
AcDbLine
 10
-201.8431163161554
 20
103.648232740995
 30
0.0
 11
-171.6031163161551
 21
103.648232740995
 31
0.0
  0
LINE
  5
25B1
330
25A9
100
AcDbEntity
  8
エンボス
  6
Continuous
100
AcDbLine
 10
-201.8431163161554
 20
63.64823274099504
 30
0.0
 11
-171.6031163161551
 21
63.64823274099504
 31
0.0
  0
TEXT
  5
25B2
330
25A9
100
AcDbEntity
  8
エンボス
  6
Continuous
100
AcDbText
 10
-308.2412150274576
 20
253.9724615214614
 30
0.0
 40
30.0
  1
GFB形状詳細
100
AcDbText
1001
ACAD
1000
MTEXTBEGIN
1070
    73
1070
     1
1070
    44
1040
1.0
1070
    74
1070
     0
1000
MTEXTEND
1000
MTEXTBEGIN
1070
    73
1070
     1
1070
    44
1040
1.0
1070
    74
1070
     0
1000
MTEXTEND
1000
MTEXTBEGIN
1070
    73
1070
     1
1070
    44
1040
1.0
1070
    74
1070
     0
1000
MTEXTEND
1000
MTEXTBEGIN
1070
    73
1070
     1
1070
    44
1040
1.0
1070
    74
1070
     0
1000
MTEXTEND
  0
MTEXT
  5
25B3
330
25A9
100
AcDbEntity
  8
エンボス
  6
Continuous
100
AcDbMText
 10
-277.8566471803206
 20
239.7434505767348
 30
0.0
 40
15.0
 41
256.2474
 71
     1
 72
     5
  1
※塗りつぶし部分突起
 73
     1
 44
1.0
1001
ACAD
1000
MTEXTBEGIN
1070
    73
1070
     1
1070
    44
1040
1.0
1070
    74
1070
     0
1000
MTEXTEND
  0
ENDBLK
  5
25B6
330
25A9
100
AcDbEntity
  8
0
 48
3.0
100
AcDbBlockEnd
  0
BLOCK
  5
25C4
330
25C3
100
AcDbEntity
  8
0
 48
3.0
100
AcDbBlockBegin
  2
*U14
 70
     1
 10
0.0
 20
0.0
 30
0.0
  3
*U14
  1

  0
LINE
  5
25CA
330
25C3
100
AcDbEntity
  8
本体
  6
Continuous
100
AcDbLine
 10
-12.56
 20
0.0
 30
0.0
 11
-3.003038000000344
 21
0.0
 31
0.0
  0
LINE
  5
25CB
330
25C3
100
AcDbEntity
  8
本体
  6
Continuous
100
AcDbLine
 10
-12.56
 20
-5.0
 30
0.0
 11
-3.003038000000344
 21
-5.0
 31
0.0
  0
LWPOLYLINE
  5
25CC
330
25C3
100
AcDbEntity
  8
本体
  6
Continuous
100
AcDbPolyline
 90
        4
 70
     1
 43
0.0
 10
-3.003038000000344
 20
0.0
 10
-0.0030380000003447
 20
0.0
 10
-0.0030380000003447
 20
-32.0
 10
-3.003038000000344
 20
-32.0
  0
LINE
  5
25CD
330
25C3
100
AcDbEntity
  8
本体
  6
Continuous
100
AcDbLine
 10
-12.56
 20
-5.0
 30
0.0
 11
-3.003038000000344
 21
0.0
 31
0.0
  0
LINE
  5
25CE
330
25C3
100
AcDbEntity
  8
本体
  6
Continuous
100
AcDbLine
 10
-12.56
 20
-25.0
 30
0.0
 11
-3.003038000000344
 21
-25.0
 31
0.0
  0
ENDBLK
  5
25C5
330
25C3
100
AcDbEntity
  8
0
 48
3.0
100
AcDbBlockEnd
  0
BLOCK
  5
25C7
330
25C6
100
AcDbEntity
  8
0
 48
3.0
100
AcDbBlockBegin
  2
*U15
 70
     1
 10
0.0
 20
0.0
 30
0.0
  3
*U15
  1

  0
INSERT
  5
25DD
330
25C6
100
AcDbEntity
  8
本体
  6
ByBlock
 62
     0
370
    -2
380
     1
100
AcDbBlockReference
  2
*U14
 10
0.0
 20
0.0
 30
0.0
  0
INSERT
  5
25DE
330
25C6
100
AcDbEntity
  8
本体
  6
ByBlock
 62
     0
370
    -2
380
     1
100
AcDbBlockReference
  2
*U14
 10
12.55692254545454
 20
0.0
 30
0.0
  0
INSERT
  5
25DF
330
25C6
100
AcDbEntity
  8
本体
  6
ByBlock
 62
     0
370
    -2
380
     1
100
AcDbBlockReference
  2
*U14
 10
25.11384509090908
 20
0.0
 30
0.0
  0
INSERT
  5
25E0
330
25C6
100
AcDbEntity
  8
本体
  6
ByBlock
 62
     0
370
    -2
380
     1
100
AcDbBlockReference
  2
*U14
 10
37.67076763636362
 20
0.0
 30
0.0
  0
INSERT
  5
25E1
330
25C6
100
AcDbEntity
  8
本体
  6
ByBlock
 62
     0
370
    -2
380
     1
100
AcDbBlockReference
  2
*U14
 10
50.22769018181816
 20
0.0
 30
0.0
  0
INSERT
  5
25E2
330
25C6
100
AcDbEntity
  8
本体
  6
ByBlock
 62
     0
370
    -2
380
     1
100
AcDbBlockReference
  2
*U14
 10
62.7846127272727
 20
0.0
 30
0.0
  0
INSERT
  5
25E3
330
25C6
100
AcDbEntity
  8
本体
  6
ByBlock
 62
     0
370
    -2
380
     1
100
AcDbBlockReference
  2
*U14
 10
75.34153527272724
 20
0.0
 30
0.0
  0
INSERT
  5
25E4
330
25C6
100
AcDbEntity
  8
本体
  6
ByBlock
 62
     0
370
    -2
380
     1
100
AcDbBlockReference
  2
*U14
 10
87.89845781818177
 20
0.0
 30
0.0
  0
INSERT
  5
25E5
330
25C6
100
AcDbEntity
  8
本体
  6
ByBlock
 62
     0
370
    -2
380
     1
100
AcDbBlockReference
  2
*U14
 10
100.4553803636363
 20
0.0
 30
0.0
  0
INSERT
  5
25E6
330
25C6
100
AcDbEntity
  8
本体
  6
ByBlock
 62
     0
370
    -2
380
     1
100
AcDbBlockReference
  2
*U14
 10
113.0123029090908
 20
0.0
 30
0.0
  0
INSERT
  5
25E7
330
25C6
100
AcDbEntity
  8
本体
  6
ByBlock
 62
     0
370
    -2
380
     1
100
AcDbBlockReference
  2
*U14
 10
125.5692254545454
 20
0.0
 30
0.0
  0
INSERT
  5
25E8
330
25C6
100
AcDbEntity
  8
本体
  6
ByBlock
 62
     0
370
    -2
380
     1
100
AcDbBlockReference
  2
*U14
 10
138.1261479999999
 20
0.0
 30
0.0
  0
INSERT
  5
25E9
330
25C6
100
AcDbEntity
  8
本体
  6
ByBlock
 62
     0
370
    -2
380
     1
100
AcDbBlockReference
  2
*U14
 10
150.6830705454545
 20
0.0
 30
0.0
  0
INSERT
  5
25EA
330
25C6
100
AcDbEntity
  8
本体
  6
ByBlock
 62
     0
370
    -2
380
     1
100
AcDbBlockReference
  2
*U14
 10
163.239993090909
 20
0.0
 30
0.0
  0
INSERT
  5
25EB
330
25C6
100
AcDbEntity
  8
本体
  6
ByBlock
 62
     0
370
    -2
380
     1
100
AcDbBlockReference
  2
*U14
 10
175.7969156363635
 20
0.0
 30
0.0
  0
INSERT
  5
25EC
330
25C6
100
AcDbEntity
  8
本体
  6
ByBlock
 62
     0
370
    -2
380
     1
100
AcDbBlockReference
  2
*U14
 10
188.3538381818181
 20
0.0
 30
0.0
  0
INSERT
  5
25ED
330
25C6
100
AcDbEntity
  8
本体
  6
ByBlock
 62
     0
370
    -2
380
     1
100
AcDbBlockReference
  2
*U14
 10
200.9107607272726
 20
0.0
 30
0.0
  0
INSERT
  5
25EE
330
25C6
100
AcDbEntity
  8
本体
  6
ByBlock
 62
     0
370
    -2
380
     1
100
AcDbBlockReference
  2
*U14
 10
213.4676832727272
 20
0.0
 30
0.0
  0
INSERT
  5
25EF
330
25C6
100
AcDbEntity
  8
本体
  6
ByBlock
 62
     0
370
    -2
380
     1
100
AcDbBlockReference
  2
*U14
 10
226.0246058181817
 20
0.0
 30
0.0
  0
INSERT
  5
25F0
330
25C6
100
AcDbEntity
  8
本体
  6
ByBlock
 62
     0
370
    -2
380
     1
100
AcDbBlockReference
  2
*U14
 10
238.5815283636363
 20
0.0
 30
0.0
  0
INSERT
  5
25F1
330
25C6
100
AcDbEntity
  8
本体
  6
ByBlock
 62
     0
370
    -2
380
     1
100
AcDbBlockReference
  2
*U14
 10
251.1384509090908
 20
0.0
 30
0.0
  0
INSERT
  5
25F2
330
25C6
100
AcDbEntity
  8
本体
  6
ByBlock
 62
     0
370
    -2
380
     1
100
AcDbBlockReference
  2
*U14
 10
263.6953734545453
 20
0.0
 30
0.0
  0
INSERT
  5
25F3
330
25C6
100
AcDbEntity
  8
本体
  6
ByBlock
 62
     0
370
    -2
380
     1
100
AcDbBlockReference
  2
*U14
 10
276.2522959999999
 20
0.0
 30
0.0
  0
INSERT
  5
25F4
330
25C6
100
AcDbEntity
  8
本体
  6
ByBlock
 62
     0
370
    -2
380
     1
100
AcDbBlockReference
  2
*U14
 10
288.8092185454544
 20
0.0
 30
0.0
  0
INSERT
  5
25F5
330
25C6
100
AcDbEntity
  8
本体
  6
ByBlock
 62
     0
370
    -2
380
     1
100
AcDbBlockReference
  2
*U14
 10
301.366141090909
 20
0.0
 30
0.0
  0
INSERT
  5
25F6
330
25C6
100
AcDbEntity
  8
本体
  6
ByBlock
 62
     0
370
    -2
380
     1
100
AcDbBlockReference
  2
*U14
 10
313.9230636363635
 20
0.0
 30
0.0
  0
INSERT
  5
25F7
330
25C6
100
AcDbEntity
  8
本体
  6
ByBlock
 62
     0
370
    -2
380
     1
100
AcDbBlockReference
  2
*U14
 10
326.479986181818
 20
0.0
 30
0.0
  0
INSERT
  5
25F8
330
25C6
100
AcDbEntity
  8
本体
  6
ByBlock
 62
     0
370
    -2
380
     1
100
AcDbBlockReference
  2
*U14
 10
339.0369087272726
 20
0.0
 30
0.0
  0
INSERT
  5
25F9
330
25C6
100
AcDbEntity
  8
本体
  6
ByBlock
 62
     0
370
    -2
380
     1
100
AcDbBlockReference
  2
*U14
 10
351.5938312727271
 20
0.0
 30
0.0
  0
INSERT
  5
25FA
330
25C6
100
AcDbEntity
  8
本体
  6
ByBlock
 62
     0
370
    -2
380
     1
100
AcDbBlockReference
  2
*U14
 10
364.1507538181817
 20
0.0
 30
0.0
  0
INSERT
  5
25FB
330
25C6
100
AcDbEntity
  8
本体
  6
ByBlock
 62
     0
370
    -2
380
     1
100
AcDbBlockReference
  2
*U14
 10
376.7076763636362
 20
0.0
 30
0.0
  0
INSERT
  5
25FC
330
25C6
100
AcDbEntity
  8
本体
  6
ByBlock
 62
     0
370
    -2
380
     1
100
AcDbBlockReference
  2
*U14
 10
389.2645989090908
 20
0.0
 30
0.0
  0
INSERT
  5
25FD
330
25C6
100
AcDbEntity
  8
本体
  6
ByBlock
 62
     0
370
    -2
380
     1
100
AcDbBlockReference
  2
*U14
 10
401.8215214545453
 20
0.0
 30
0.0
  0
INSERT
  5
25FE
330
25C6
100
AcDbEntity
  8
本体
  6
ByBlock
 62
     0
370
    -2
380
     1
100
AcDbBlockReference
  2
*U14
 10
414.3784439999998
 20
0.0
 30
0.0
  0
INSERT
  5
25FF
330
25C6
100
AcDbEntity
  8
本体
  6
ByBlock
 62
     0
370
    -2
380
     1
100
AcDbBlockReference
  2
*U14
 10
426.9353665454543
 20
0.0
 30
0.0
  0
INSERT
  5
2600
330
25C6
100
AcDbEntity
  8
本体
  6
ByBlock
 62
     0
370
    -2
380
     1
100
AcDbBlockReference
  2
*U14
 10
439.4922890909088
 20
0.0
 30
0.0
  0
INSERT
  5
2601
330
25C6
100
AcDbEntity
  8
本体
  6
ByBlock
 62
     0
370
    -2
380
     1
100
AcDbBlockReference
  2
*U14
 10
452.0492116363634
 20
0.0
 30
0.0
  0
INSERT
  5
2602
330
25C6
100
AcDbEntity
  8
本体
  6
ByBlock
 62
     0
370
    -2
380
     1
100
AcDbBlockReference
  2
*U14
 10
464.606134181818
 20
0.0
 30
0.0
  0
INSERT
  5
2603
330
25C6
100
AcDbEntity
  8
本体
  6
ByBlock
 62
     0
370
    -2
380
     1
100
AcDbBlockReference
  2
*U14
 10
477.1630567272725
 20
0.0
 30
0.0
  0
INSERT
  5
2604
330
25C6
100
AcDbEntity
  8
本体
  6
ByBlock
 62
     0
370
    -2
380
     1
100
AcDbBlockReference
  2
*U14
 10
489.7199792727271
 20
0.0
 30
0.0
  0
INSERT
  5
2605
330
25C6
100
AcDbEntity
  8
本体
  6
ByBlock
 62
     0
370
    -2
380
     1
100
AcDbBlockReference
  2
*U14
 10
502.2769018181816
 20
0.0
 30
0.0
  0
INSERT
  5
2606
330
25C6
100
AcDbEntity
  8
本体
  6
ByBlock
 62
     0
370
    -2
380
     1
100
AcDbBlockReference
  2
*U14
 10
514.8338243636361
 20
0.0
 30
0.0
  0
INSERT
  5
2607
330
25C6
100
AcDbEntity
  8
本体
  6
ByBlock
 62
     0
370
    -2
380
     1
100
AcDbBlockReference
  2
*U14
 10
527.3907469090906
 20
0.0
 30
0.0
  0
INSERT
  5
2608
330
25C6
100
AcDbEntity
  8
本体
  6
ByBlock
 62
     0
370
    -2
380
     1
100
AcDbBlockReference
  2
*U14
 10
539.9476694545452
 20
0.0
 30
0.0
  0
INSERT
  5
2609
330
25C6
100
AcDbEntity
  8
本体
  6
ByBlock
 62
     0
370
    -2
380
     1
100
AcDbBlockReference
  2
*U14
 10
552.5045919999997
 20
0.0
 30
0.0
  0
INSERT
  5
260A
330
25C6
100
AcDbEntity
  8
本体
  6
ByBlock
 62
     0
370
    -2
380
     1
100
AcDbBlockReference
  2
*U14
 10
565.0615145454543
 20
0.0
 30
0.0
  0
INSERT
  5
260B
330
25C6
100
AcDbEntity
  8
本体
  6
ByBlock
 62
     0
370
    -2
380
     1
100
AcDbBlockReference
  2
*U14
 10
577.6184370909088
 20
0.0
 30
0.0
  0
INSERT
  5
260C
330
25C6
100
AcDbEntity
  8
本体
  6
ByBlock
 62
     0
370
    -2
380
     1
100
AcDbBlockReference
  2
*U14
 10
590.1753596363634
 20
0.0
 30
0.0
  0
INSERT
  5
260D
330
25C6
100
AcDbEntity
  8
本体
  6
ByBlock
 62
     0
370
    -2
380
     1
100
AcDbBlockReference
  2
*U14
 10
602.7322821818179
 20
0.0
 30
0.0
  0
INSERT
  5
260E
330
25C6
100
AcDbEntity
  8
本体
  6
ByBlock
 62
     0
370
    -2
380
     1
100
AcDbBlockReference
  2
*U14
 10
615.2892047272724
 20
0.0
 30
0.0
  0
INSERT
  5
260F
330
25C6
100
AcDbEntity
  8
本体
  6
ByBlock
 62
     0
370
    -2
380
     1
100
AcDbBlockReference
  2
*U14
 10
627.846127272727
 20
0.0
 30
0.0
  0
INSERT
  5
2610
330
25C6
100
AcDbEntity
  8
本体
  6
ByBlock
 62
     0
370
    -2
380
     1
100
AcDbBlockReference
  2
*U14
 10
640.4030498181815
 20
0.0
 30
0.0
  0
INSERT
  5
2611
330
25C6
100
AcDbEntity
  8
本体
  6
ByBlock
 62
     0
370
    -2
380
     1
100
AcDbBlockReference
  2
*U14
 10
652.959972363636
 20
0.0
 30
0.0
  0
INSERT
  5
2612
330
25C6
100
AcDbEntity
  8
本体
  6
ByBlock
 62
     0
370
    -2
380
     1
100
AcDbBlockReference
  2
*U14
 10
665.5168949090906
 20
0.0
 30
0.0
  0
INSERT
  5
2613
330
25C6
100
AcDbEntity
  8
本体
  6
ByBlock
 62
     0
370
    -2
380
     1
100
AcDbBlockReference
  2
*U14
 10
678.0738174545452
 20
0.0
 30
0.0
  0
INSERT
  5
2614
330
25C6
100
AcDbEntity
  8
本体
  6
ByBlock
 62
     0
370
    -2
380
     1
100
AcDbBlockReference
  2
*U14
 10
690.6307399999997
 20
0.0
 30
0.0
  0
INSERT
  5
2615
330
25C6
100
AcDbEntity
  8
本体
  6
ByBlock
 62
     0
370
    -2
380
     1
100
AcDbBlockReference
  2
*U14
 10
703.1876625454542
 20
0.0
 30
0.0
  0
INSERT
  5
2616
330
25C6
100
AcDbEntity
  8
本体
  6
ByBlock
 62
     0
370
    -2
380
     1
100
AcDbBlockReference
  2
*U14
 10
715.7445850909088
 20
0.0
 30
0.0
  0
INSERT
  5
2617
330
25C6
100
AcDbEntity
  8
本体
  6
ByBlock
 62
     0
370
    -2
380
     1
100
AcDbBlockReference
  2
*U14
 10
728.3015076363633
 20
0.0
 30
0.0
  0
INSERT
  5
2618
330
25C6
100
AcDbEntity
  8
本体
  6
ByBlock
 62
     0
370
    -2
380
     1
100
AcDbBlockReference
  2
*U14
 10
740.8584301818178
 20
0.0
 30
0.0
  0
INSERT
  5
2619
330
25C6
100
AcDbEntity
  8
本体
  6
ByBlock
 62
     0
370
    -2
380
     1
100
AcDbBlockReference
  2
*U14
 10
753.4153527272724
 20
0.0
 30
0.0
  0
INSERT
  5
261A
330
25C6
100
AcDbEntity
  8
本体
  6
ByBlock
 62
     0
370
    -2
380
     1
100
AcDbBlockReference
  2
*U14
 10
765.9722752727269
 20
0.0
 30
0.0
  0
INSERT
  5
261B
330
25C6
100
AcDbEntity
  8
本体
  6
ByBlock
 62
     0
370
    -2
380
     1
100
AcDbBlockReference
  2
*U14
 10
778.5291978181815
 20
0.0
 30
0.0
  0
INSERT
  5
261C
330
25C6
100
AcDbEntity
  8
本体
  6
ByBlock
 62
     0
370
    -2
380
     1
100
AcDbBlockReference
  2
*U14
 10
791.086120363636
 20
0.0
 30
0.0
  0
INSERT
  5
261D
330
25C6
100
AcDbEntity
  8
本体
  6
ByBlock
 62
     0
370
    -2
380
     1
100
AcDbBlockReference
  2
*U14
 10
803.6430429090906
 20
0.0
 30
0.0
  0
INSERT
  5
261E
330
25C6
100
AcDbEntity
  8
本体
  6
ByBlock
 62
     0
370
    -2
380
     1
100
AcDbBlockReference
  2
*U14
 10
816.199965454545
 20
0.0
 30
0.0
  0
INSERT
  5
261F
330
25C6
100
AcDbEntity
  8
本体
  6
ByBlock
 62
     0
370
    -2
380
     1
100
AcDbBlockReference
  2
*U14
 10
828.7568879999996
 20
0.0
 30
0.0
  0
INSERT
  5
2620
330
25C6
100
AcDbEntity
  8
本体
  6
ByBlock
 62
     0
370
    -2
380
     1
100
AcDbBlockReference
  2
*U14
 10
841.3138105454542
 20
0.0
 30
0.0
  0
INSERT
  5
2621
330
25C6
100
AcDbEntity
  8
本体
  6
ByBlock
 62
     0
370
    -2
380
     1
100
AcDbBlockReference
  2
*U14
 10
853.8707330909087
 20
0.0
 30
0.0
  0
INSERT
  5
2622
330
25C6
100
AcDbEntity
  8
本体
  6
ByBlock
 62
     0
370
    -2
380
     1
100
AcDbBlockReference
  2
*U14
 10
866.4276556363633
 20
0.0
 30
0.0
  0
INSERT
  5
2623
330
25C6
100
AcDbEntity
  8
本体
  6
ByBlock
 62
     0
370
    -2
380
     1
100
AcDbBlockReference
  2
*U14
 10
878.9845781818177
 20
0.0
 30
0.0
  0
INSERT
  5
2624
330
25C6
100
AcDbEntity
  8
本体
  6
ByBlock
 62
     0
370
    -2
380
     1
100
AcDbBlockReference
  2
*U14
 10
891.5415007272724
 20
0.0
 30
0.0
  0
INSERT
  5
2625
330
25C6
100
AcDbEntity
  8
本体
  6
ByBlock
 62
     0
370
    -2
380
     1
100
AcDbBlockReference
  2
*U14
 10
904.0984232727268
 20
0.0
 30
0.0
  0
INSERT
  5
2626
330
25C6
100
AcDbEntity
  8
本体
  6
ByBlock
 62
     0
370
    -2
380
     1
100
AcDbBlockReference
  2
*U14
 10
916.6553458181814
 20
0.0
 30
0.0
  0
INSERT
  5
2627
330
25C6
100
AcDbEntity
  8
本体
  6
ByBlock
 62
     0
370
    -2
380
     1
100
AcDbBlockReference
  2
*U14
 10
929.212268363636
 20
0.0
 30
0.0
  0
INSERT
  5
2628
330
25C6
100
AcDbEntity
  8
本体
  6
ByBlock
 62
     0
370
    -2
380
     1
100
AcDbBlockReference
  2
*U14
 10
941.7691909090905
 20
0.0
 30
0.0
  0
INSERT
  5
2629
330
25C6
100
AcDbEntity
  8
本体
  6
ByBlock
 62
     0
370
    -2
380
     1
100
AcDbBlockReference
  2
*U14
 10
954.3261134545451
 20
0.0
 30
0.0
  0
INSERT
  5
262A
330
25C6
100
AcDbEntity
  8
本体
  6
ByBlock
 62
     0
370
    -2
380
     1
100
AcDbBlockReference
  2
*U14
 10
966.8830359999995
 20
0.0
 30
0.0
  0
ENDBLK
  5
25C8
330
25C6
100
AcDbEntity
  8
0
 48
3.0
100
AcDbBlockEnd
  0
BLOCK
  5
26F5
330
26F4
100
AcDbEntity
  8
0
 48
3.0
100
AcDbBlockBegin
  2
*U16
 70
     1
 10
0.0
 20
0.0
 30
0.0
  3
*U16
  1

  0
LINE
  5
26FB
330
26F4
100
AcDbEntity
  8
本体
  6
Continuous
100
AcDbLine
 10
7.778480984999987
 20
310.5000000000002
 30
0.0
 11
7.778480984999987
 21
252.5000000000002
 31
0.0
  0
LINE
  5
26FC
330
26F4
100
AcDbEntity
  8
本体
  6
Continuous
100
AcDbLine
 10
4.778480984999987
 20
310.5000000000002
 30
0.0
 11
4.778480984999987
 21
252.5000000000002
 31
0.0
  0
LINE
  5
26FD
330
26F4
100
AcDbEntity
  8
本体
  6
Continuous
100
AcDbLine
 10
7.778480984999987
 20
247.5000000000002
 30
0.0
 11
7.778480984999987
 21
152.5
 31
0.0
  0
LINE
  5
26FE
330
26F4
100
AcDbEntity
  8
本体
  6
Continuous
100
AcDbLine
 10
4.778480984999987
 20
247.5000000000002
 30
0.0
 11
4.778480984999987
 21
152.5
 31
0.0
  0
LINE
  5
26FF
330
26F4
100
AcDbEntity
  8
本体
  6
Continuous
100
AcDbLine
 10
4.778480984999987
 20
147.5000000000002
 30
0.0
 11
4.778480984999987
 21
52.5
 31
0.0
  0
LINE
  5
2700
330
26F4
100
AcDbEntity
  8
本体
  6
Continuous
100
AcDbLine
 10
7.778480984999987
 20
147.5000000000002
 30
0.0
 11
7.778480984999987
 21
52.5
 31
0.0
  0
LINE
  5
2701
330
26F4
100
AcDbEntity
  8
本体
  6
Continuous
100
AcDbLine
 10
4.778480984999987
 20
47.50000000000023
 30
0.0
 11
4.778480984999987
 21
-47.5
 31
0.0
  0
LINE
  5
2702
330
26F4
100
AcDbEntity
  8
本体
  6
Continuous
100
AcDbLine
 10
7.778480984999987
 20
47.50000000000023
 30
0.0
 11
7.778480984999987
 21
-47.5
 31
0.0
  0
LINE
  5
2703
330
26F4
100
AcDbEntity
  8
本体
  6
Continuous
100
AcDbLine
 10
7.778480984999987
 20
-310.5000000000002
 30
0.0
 11
7.778480984999987
 21
-252.5000000000002
 31
0.0
  0
LINE
  5
2704
330
26F4
100
AcDbEntity
  8
本体
  6
Continuous
100
AcDbLine
 10
4.778480984999987
 20
-310.5000000000002
 30
0.0
 11
4.778480984999987
 21
-252.5000000000002
 31
0.0
  0
LINE
  5
2705
330
26F4
100
AcDbEntity
  8
本体
  6
Continuous
100
AcDbLine
 10
7.778480984999987
 20
-52.49999999999977
 30
0.0
 11
7.778480984999987
 21
-147.5
 31
0.0
  0
LINE
  5
2706
330
26F4
100
AcDbEntity
  8
本体
  6
Continuous
100
AcDbLine
 10
4.778480984999987
 20
-52.49999999999977
 30
0.0
 11
4.778480984999987
 21
-147.5
 31
0.0
  0
LINE
  5
2707
330
26F4
100
AcDbEntity
  8
本体
  6
Continuous
100
AcDbLine
 10
4.778480984999987
 20
-152.4999999999997
 30
0.0
 11
4.778480984999987
 21
-247.5
 31
0.0
  0
LINE
  5
2708
330
26F4
100
AcDbEntity
  8
本体
  6
Continuous
100
AcDbLine
 10
7.778480984999987
 20
-152.4999999999997
 30
0.0
 11
7.778480984999987
 21
-247.5
 31
0.0
  0
LINE
  5
2709
330
26F4
100
AcDbEntity
  8
本体
  6
Continuous
100
AcDbLine
 10
-7.778481015000124
 20
247.5000000000002
 30
0.0
 11
4.778480984999987
 21
252.5000000000002
 31
0.0
  0
LINE
  5
270A
330
26F4
100
AcDbEntity
  8
本体
  6
Continuous
100
AcDbLine
 10
-7.778481015000124
 20
147.5000000000002
 30
0.0
 11
4.778480984999987
 21
152.5000000000002
 31
0.0
  0
LINE
  5
270B
330
26F4
100
AcDbEntity
  8
本体
  6
Continuous
100
AcDbLine
 10
-7.778481015000124
 20
47.50000000000023
 30
0.0
 11
4.778480984999987
 21
52.50000000000023
 31
0.0
  0
LINE
  5
270C
330
26F4
100
AcDbEntity
  8
本体
  6
Continuous
100
AcDbLine
 10
-7.778481015000124
 20
-52.49999999999977
 30
0.0
 11
4.778480984999987
 21
-47.49999999999977
 31
0.0
  0
LINE
  5
270D
330
26F4
100
AcDbEntity
  8
本体
  6
Continuous
100
AcDbLine
 10
-7.778481015000124
 20
-152.4999999999997
 30
0.0
 11
4.778480984999987
 21
-147.4999999999997
 31
0.0
  0
LINE
  5
270E
330
26F4
100
AcDbEntity
  8
本体
  6
Continuous
100
AcDbLine
 10
-7.778481015000124
 20
-252.4999999999998
 30
0.0
 11
4.778480984999987
 21
-247.4999999999998
 31
0.0
  0
LINE
  5
270F
330
26F4
100
AcDbEntity
  8
エンボス
  6
Continuous
100
AcDbLine
 10
4.778481015000124
 20
278.2000000000003
 30
0.0
 11
7.778481015000124
 21
277.0000000000002
 31
0.0
  0
LINE
  5
2710
330
26F4
100
AcDbEntity
  8
エンボス
  6
Continuous
100
AcDbLine
 10
7.778481015000124
 20
272.4000000000001
 30
0.0
 11
4.778481015000124
 21
271.2000000000003
 31
0.0
  0
LINE
  5
2711
330
26F4
100
AcDbEntity
  8
エンボス
  6
Continuous
100
AcDbLine
 10
7.778481015000124
 20
258.0000000000002
 30
0.0
 11
4.778481015000124
 21
259.2000000000003
 31
0.0
  0
LINE
  5
2712
330
26F4
100
AcDbEntity
  8
エンボス
  6
Continuous
100
AcDbLine
 10
4.778481015000124
 20
262.2000000000003
 30
0.0
 11
7.778481015000124
 21
263.4000000000001
 31
0.0
  0
LINE
  5
2713
330
26F4
100
AcDbEntity
  8
エンボス
  6
Continuous
100
AcDbLine
 10
7.778481015000124
 20
286.0000000000002
 30
0.0
 11
4.778481015000124
 21
287.2000000000003
 31
0.0
  0
LINE
  5
2714
330
26F4
100
AcDbEntity
  8
エンボス
  6
Continuous
100
AcDbLine
 10
4.778481015000124
 20
290.2000000000003
 30
0.0
 11
7.778481015000124
 21
291.4000000000001
 31
0.0
  0
LINE
  5
2715
330
26F4
100
AcDbEntity
  8
エンボス
  6
Continuous
100
AcDbLine
 10
7.778481015000124
 20
300.4000000000001
 30
0.0
 11
4.778481015000124
 21
299.2000000000003
 31
0.0
  0
LINE
  5
2716
330
26F4
100
AcDbEntity
  8
エンボス
  6
Continuous
100
AcDbLine
 10
4.778481015000124
 20
306.2000000000003
 30
0.0
 11
7.778481015000124
 21
305.0000000000002
 31
0.0
  0
LINE
  5
2717
330
26F4
100
AcDbEntity
  8
エンボス
  6
Continuous
100
AcDbLine
 10
7.778481015000124
 20
162.8999999999998
 30
0.0
 11
4.778481015000124
 21
161.7
 31
0.0
  0
LINE
  5
2718
330
26F4
100
AcDbEntity
  8
エンボス
  6
Continuous
100
AcDbLine
 10
4.778481015000124
 20
168.7
 30
0.0
 11
7.778481015000124
 21
167.5
 31
0.0
  0
LINE
  5
2719
330
26F4
100
AcDbEntity
  8
エンボス
  6
Continuous
100
AcDbLine
 10
4.778481015000124
 20
196.7
 30
0.0
 11
7.778481015000124
 21
195.5
 31
0.0
  0
LINE
  5
271A
330
26F4
100
AcDbEntity
  8
エンボス
  6
Continuous
100
AcDbLine
 10
7.778481015000124
 20
190.8999999999998
 30
0.0
 11
4.778481015000124
 21
189.7
 31
0.0
  0
LINE
  5
271B
330
26F4
100
AcDbEntity
  8
エンボス
  6
Continuous
100
AcDbLine
 10
7.778481015000124
 20
204.5
 30
0.0
 11
4.778481015000124
 21
205.7
 31
0.0
  0
LINE
  5
271C
330
26F4
100
AcDbEntity
  8
エンボス
  6
Continuous
100
AcDbLine
 10
4.778481015000124
 20
208.7000000000001
 30
0.0
 11
7.778481015000124
 21
209.8999999999999
 31
0.0
  0
LINE
  5
271D
330
26F4
100
AcDbEntity
  8
エンボス
  6
Continuous
100
AcDbLine
 10
7.778481015000124
 20
176.5
 30
0.0
 11
4.778481015000124
 21
177.7
 31
0.0
  0
LINE
  5
271E
330
26F4
100
AcDbEntity
  8
エンボス
  6
Continuous
100
AcDbLine
 10
4.778481015000124
 20
180.7
 30
0.0
 11
7.778481015000124
 21
181.8999999999998
 31
0.0
  0
LINE
  5
271F
330
26F4
100
AcDbEntity
  8
エンボス
  6
Continuous
100
AcDbLine
 10
7.778481015000124
 20
232.5
 30
0.0
 11
4.778481015000124
 21
233.7000000000001
 31
0.0
  0
LINE
  5
2720
330
26F4
100
AcDbEntity
  8
エンボス
  6
Continuous
100
AcDbLine
 10
4.778481015000124
 20
236.7
 30
0.0
 11
7.778481015000124
 21
237.8999999999999
 31
0.0
  0
LINE
  5
2721
330
26F4
100
AcDbEntity
  8
エンボス
  6
Continuous
100
AcDbLine
 10
7.778481015000124
 20
218.8999999999999
 30
0.0
 11
4.778481015000124
 21
217.7
 31
0.0
  0
LINE
  5
2722
330
26F4
100
AcDbEntity
  8
エンボス
  6
Continuous
100
AcDbLine
 10
4.778481015000124
 20
224.7
 30
0.0
 11
7.778481015000124
 21
223.5
 31
0.0
  0
LINE
  5
2723
330
26F4
100
AcDbEntity
  8
エンボス
  6
Continuous
100
AcDbLine
 10
4.778481015000124
 20
80.70000000000005
 30
0.0
 11
7.778481015000124
 21
81.89999999999987
 31
0.0
  0
LINE
  5
2724
330
26F4
100
AcDbEntity
  8
エンボス
  6
Continuous
100
AcDbLine
 10
7.778481015000124
 20
76.5
 30
0.0
 11
4.778481015000124
 21
77.70000000000004
 31
0.0
  0
LINE
  5
2725
330
26F4
100
AcDbEntity
  8
エンボス
  6
Continuous
100
AcDbLine
 10
7.778481015000124
 20
90.89999999999987
 30
0.0
 11
4.778481015000124
 21
89.70000000000004
 31
0.0
  0
LINE
  5
2726
330
26F4
100
AcDbEntity
  8
エンボス
  6
Continuous
100
AcDbLine
 10
4.778481015000124
 20
96.70000000000005
 30
0.0
 11
7.778481015000124
 21
95.5
 31
0.0
  0
LINE
  5
2727
330
26F4
100
AcDbEntity
  8
エンボス
  6
Continuous
100
AcDbLine
 10
4.778481015000124
 20
68.70000000000004
 30
0.0
 11
7.778481015000124
 21
67.5
 31
0.0
  0
LINE
  5
2728
330
26F4
100
AcDbEntity
  8
エンボス
  6
Continuous
100
AcDbLine
 10
7.778481015000124
 20
62.89999999999986
 30
0.0
 11
4.778481015000124
 21
61.70000000000005
 31
0.0
  0
LINE
  5
2729
330
26F4
100
AcDbEntity
  8
エンボス
  6
Continuous
100
AcDbLine
 10
4.778481015000124
 20
124.7
 30
0.0
 11
7.778481015000124
 21
123.5
 31
0.0
  0
LINE
  5
272A
330
26F4
100
AcDbEntity
  8
エンボス
  6
Continuous
100
AcDbLine
 10
7.778481015000124
 20
118.8999999999998
 30
0.0
 11
4.778481015000124
 21
117.7
 31
0.0
  0
LINE
  5
272B
330
26F4
100
AcDbEntity
  8
エンボス
  6
Continuous
100
AcDbLine
 10
7.778481015000124
 20
132.5
 30
0.0
 11
4.778481015000124
 21
133.7
 31
0.0
  0
LINE
  5
272C
330
26F4
100
AcDbEntity
  8
エンボス
  6
Continuous
100
AcDbLine
 10
4.778481015000124
 20
108.7
 30
0.0
 11
7.778481015000124
 21
109.8999999999998
 31
0.0
  0
LINE
  5
272D
330
26F4
100
AcDbEntity
  8
エンボス
  6
Continuous
100
AcDbLine
 10
7.778481015000124
 20
104.5
 30
0.0
 11
4.778481015000124
 21
105.7
 31
0.0
  0
LINE
  5
272E
330
26F4
100
AcDbEntity
  8
エンボス
  6
Continuous
100
AcDbLine
 10
4.778481015000124
 20
136.7
 30
0.0
 11
7.778481015000124
 21
137.8999999999998
 31
0.0
  0
LINE
  5
272F
330
26F4
100
AcDbEntity
  8
エンボス
  6
Continuous
100
AcDbLine
 10
4.778481015000124
 20
-19.29999999999995
 30
0.0
 11
7.778481015000124
 21
-18.10000000000013
 31
0.0
  0
LINE
  5
2730
330
26F4
100
AcDbEntity
  8
エンボス
  6
Continuous
100
AcDbLine
 10
7.778481015000124
 20
-23.5
 30
0.0
 11
4.778481015000124
 21
-22.29999999999995
 31
0.0
  0
LINE
  5
2731
330
26F4
100
AcDbEntity
  8
エンボス
  6
Continuous
100
AcDbLine
 10
4.778481015000124
 20
-31.29999999999995
 30
0.0
 11
7.778481015000124
 21
-32.5
 31
0.0
  0
LINE
  5
2732
330
26F4
100
AcDbEntity
  8
エンボス
  6
Continuous
100
AcDbLine
 10
7.778481015000124
 20
-37.10000000000014
 30
0.0
 11
4.778481015000124
 21
-38.29999999999996
 31
0.0
  0
LINE
  5
2733
330
26F4
100
AcDbEntity
  8
エンボス
  6
Continuous
100
AcDbLine
 10
4.778481015000124
 20
24.70000000000005
 30
0.0
 11
7.778481015000124
 21
23.5
 31
0.0
  0
LINE
  5
2734
330
26F4
100
AcDbEntity
  8
エンボス
  6
Continuous
100
AcDbLine
 10
7.778481015000124
 20
18.89999999999986
 30
0.0
 11
4.778481015000124
 21
17.70000000000004
 31
0.0
  0
LINE
  5
2735
330
26F4
100
AcDbEntity
  8
エンボス
  6
Continuous
100
AcDbLine
 10
4.778481015000124
 20
8.700000000000045
 30
0.0
 11
7.778481015000124
 21
9.899999999999863
 31
0.0
  0
LINE
  5
2736
330
26F4
100
AcDbEntity
  8
エンボス
  6
Continuous
100
AcDbLine
 10
7.778481015000124
 20
4.5
 30
0.0
 11
4.778481015000124
 21
5.700000000000045
 31
0.0
  0
LINE
  5
2737
330
26F4
100
AcDbEntity
  8
エンボス
  6
Continuous
100
AcDbLine
 10
7.778481015000124
 20
-9.100000000000136
 30
0.0
 11
4.778481015000124
 21
-10.29999999999995
 31
0.0
  0
LINE
  5
2738
330
26F4
100
AcDbEntity
  8
エンボス
  6
Continuous
100
AcDbLine
 10
4.778481015000124
 20
-3.299999999999954
 30
0.0
 11
7.778481015000124
 21
-4.5
 31
0.0
  0
LINE
  5
2739
330
26F4
100
AcDbEntity
  8
エンボス
  6
Continuous
100
AcDbLine
 10
4.778481015000124
 20
36.70000000000005
 30
0.0
 11
7.778481015000124
 21
37.89999999999987
 31
0.0
  0
LINE
  5
273A
330
26F4
100
AcDbEntity
  8
エンボス
  6
Continuous
100
AcDbLine
 10
7.778481015000124
 20
32.5
 30
0.0
 11
4.778481015000124
 21
33.70000000000004
 31
0.0
  0
LINE
  5
273B
330
26F4
100
AcDbEntity
  8
エンボス
  6
Continuous
100
AcDbLine
 10
7.778481015000124
 20
-137.1000000000001
 30
0.0
 11
4.778481015000124
 21
-138.2999999999999
 31
0.0
  0
LINE
  5
273C
330
26F4
100
AcDbEntity
  8
エンボス
  6
Continuous
100
AcDbLine
 10
4.778481015000124
 20
-131.2999999999999
 30
0.0
 11
7.778481015000124
 21
-132.5
 31
0.0
  0
LINE
  5
273D
330
26F4
100
AcDbEntity
  8
エンボス
  6
Continuous
100
AcDbLine
 10
4.778481015000124
 20
-103.2999999999999
 30
0.0
 11
7.778481015000124
 21
-104.5
 31
0.0
  0
LINE
  5
273E
330
26F4
100
AcDbEntity
  8
エンボス
  6
Continuous
100
AcDbLine
 10
7.778481015000124
 20
-109.1000000000001
 30
0.0
 11
4.778481015000124
 21
-110.2999999999999
 31
0.0
  0
LINE
  5
273F
330
26F4
100
AcDbEntity
  8
エンボス
  6
Continuous
100
AcDbLine
 10
7.778481015000124
 20
-95.5
 30
0.0
 11
4.778481015000124
 21
-94.29999999999996
 31
0.0
  0
LINE
  5
2740
330
26F4
100
AcDbEntity
  8
エンボス
  6
Continuous
100
AcDbLine
 10
4.778481015000124
 20
-91.29999999999995
 30
0.0
 11
7.778481015000124
 21
-90.10000000000013
 31
0.0
  0
LINE
  5
2741
330
26F4
100
AcDbEntity
  8
エンボス
  6
Continuous
100
AcDbLine
 10
7.778481015000124
 20
-123.5
 30
0.0
 11
4.778481015000124
 21
-122.2999999999999
 31
0.0
  0
LINE
  5
2742
330
26F4
100
AcDbEntity
  8
エンボス
  6
Continuous
100
AcDbLine
 10
4.778481015000124
 20
-119.2999999999999
 30
0.0
 11
7.778481015000124
 21
-118.1000000000001
 31
0.0
  0
LINE
  5
2743
330
26F4
100
AcDbEntity
  8
エンボス
  6
Continuous
100
AcDbLine
 10
7.778481015000124
 20
-67.5
 30
0.0
 11
4.778481015000124
 21
-66.29999999999995
 31
0.0
  0
LINE
  5
2744
330
26F4
100
AcDbEntity
  8
エンボス
  6
Continuous
100
AcDbLine
 10
4.778481015000124
 20
-63.29999999999995
 30
0.0
 11
7.778481015000124
 21
-62.10000000000014
 31
0.0
  0
LINE
  5
2745
330
26F4
100
AcDbEntity
  8
エンボス
  6
Continuous
100
AcDbLine
 10
7.778481015000124
 20
-81.10000000000013
 30
0.0
 11
4.778481015000124
 21
-82.29999999999995
 31
0.0
  0
LINE
  5
2746
330
26F4
100
AcDbEntity
  8
エンボス
  6
Continuous
100
AcDbLine
 10
4.778481015000124
 20
-75.29999999999995
 30
0.0
 11
7.778481015000124
 21
-76.5
 31
0.0
  0
LINE
  5
2747
330
26F4
100
AcDbEntity
  8
エンボス
  6
Continuous
100
AcDbLine
 10
7.778481015000124
 20
-237.1000000000001
 30
0.0
 11
4.778481015000124
 21
-238.3
 31
0.0
  0
LINE
  5
2748
330
26F4
100
AcDbEntity
  8
エンボス
  6
Continuous
100
AcDbLine
 10
4.778481015000124
 20
-219.3
 30
0.0
 11
7.778481015000124
 21
-218.1000000000001
 31
0.0
  0
LINE
  5
2749
330
26F4
100
AcDbEntity
  8
エンボス
  6
Continuous
100
AcDbLine
 10
7.778481015000124
 20
-223.5
 30
0.0
 11
4.778481015000124
 21
-222.2999999999999
 31
0.0
  0
LINE
  5
274A
330
26F4
100
AcDbEntity
  8
エンボス
  6
Continuous
100
AcDbLine
 10
7.778481015000124
 20
-209.1000000000001
 30
0.0
 11
4.778481015000124
 21
-210.3
 31
0.0
  0
LINE
  5
274B
330
26F4
100
AcDbEntity
  8
エンボス
  6
Continuous
100
AcDbLine
 10
4.778481015000124
 20
-203.2999999999999
 30
0.0
 11
7.778481015000124
 21
-204.5
 31
0.0
  0
LINE
  5
274C
330
26F4
100
AcDbEntity
  8
エンボス
  6
Continuous
100
AcDbLine
 10
4.778481015000124
 20
-231.3
 30
0.0
 11
7.778481015000124
 21
-232.5
 31
0.0
  0
LINE
  5
274D
330
26F4
100
AcDbEntity
  8
エンボス
  6
Continuous
100
AcDbLine
 10
4.778481015000124
 20
-175.2999999999999
 30
0.0
 11
7.778481015000124
 21
-176.5
 31
0.0
  0
LINE
  5
274E
330
26F4
100
AcDbEntity
  8
エンボス
  6
Continuous
100
AcDbLine
 10
7.778481015000124
 20
-181.1000000000001
 30
0.0
 11
4.778481015000124
 21
-182.2999999999999
 31
0.0
  0
LINE
  5
274F
330
26F4
100
AcDbEntity
  8
エンボス
  6
Continuous
100
AcDbLine
 10
4.778481015000124
 20
-163.2999999999999
 30
0.0
 11
7.778481015000124
 21
-162.1000000000001
 31
0.0
  0
LINE
  5
2750
330
26F4
100
AcDbEntity
  8
エンボス
  6
Continuous
100
AcDbLine
 10
7.778481015000124
 20
-167.5
 30
0.0
 11
4.778481015000124
 21
-166.2999999999999
 31
0.0
  0
LINE
  5
2751
330
26F4
100
AcDbEntity
  8
エンボス
  6
Continuous
100
AcDbLine
 10
4.778481015000124
 20
-191.2999999999999
 30
0.0
 11
7.778481015000124
 21
-190.1000000000001
 31
0.0
  0
LINE
  5
2752
330
26F4
100
AcDbEntity
  8
エンボス
  6
Continuous
100
AcDbLine
 10
7.778481015000124
 20
-195.5
 30
0.0
 11
4.778481015000124
 21
-194.2999999999999
 31
0.0
  0
LINE
  5
2753
330
26F4
100
AcDbEntity
  8
エンボス
  6
Continuous
100
AcDbLine
 10
4.778481015000124
 20
-272.8000000000002
 30
0.0
 11
7.778481015000124
 21
-271.6000000000004
 31
0.0
  0
LINE
  5
2754
330
26F4
100
AcDbEntity
  8
エンボス
  6
Continuous
100
AcDbLine
 10
7.778481015000124
 20
-277.0000000000002
 30
0.0
 11
4.778481015000124
 21
-275.8000000000002
 31
0.0
  0
LINE
  5
2755
330
26F4
100
AcDbEntity
  8
エンボス
  6
Continuous
100
AcDbLine
 10
4.778481015000124
 20
-284.8000000000002
 30
0.0
 11
7.778481015000124
 21
-286.0000000000002
 31
0.0
  0
LINE
  5
2756
330
26F4
100
AcDbEntity
  8
エンボス
  6
Continuous
100
AcDbLine
 10
7.778481015000124
 20
-290.6000000000004
 30
0.0
 11
4.778481015000124
 21
-291.8000000000002
 31
0.0
  0
LINE
  5
2757
330
26F4
100
AcDbEntity
  8
エンボス
  6
Continuous
100
AcDbLine
 10
7.778481015000124
 20
-305.0000000000002
 30
0.0
 11
4.778481015000124
 21
-303.8000000000002
 31
0.0
  0
LINE
  5
2758
330
26F4
100
AcDbEntity
  8
エンボス
  6
Continuous
100
AcDbLine
 10
4.778481015000124
 20
-300.8000000000002
 30
0.0
 11
7.778481015000124
 21
-299.6000000000003
 31
0.0
  0
LINE
  5
2759
330
26F4
100
AcDbEntity
  8
エンボス
  6
Continuous
100
AcDbLine
 10
7.778481015000124
 20
-262.6000000000004
 30
0.0
 11
4.778481015000124
 21
-263.8000000000002
 31
0.0
  0
LINE
  5
275A
330
26F4
100
AcDbEntity
  8
エンボス
  6
Continuous
100
AcDbLine
 10
4.778481015000124
 20
-256.8000000000002
 30
0.0
 11
7.778481015000124
 21
-258.0000000000002
 31
0.0
  0
ENDBLK
  5
26F6
330
26F4
100
AcDbEntity
  8
0
 48
3.0
100
AcDbBlockEnd
  0
BLOCK
  5
26F8
330
26F7
100
AcDbEntity
  8
0
 48
3.0
100
AcDbBlockBegin
  2
*U17
 70
     1
 10
0.0
 20
0.0
 30
0.0
  3
*U17
  1

  0
INSERT
  5
2765
330
26F7
100
AcDbEntity
  8
本体
  6
ByBlock
 62
     0
370
    -2
380
     1
100
AcDbBlockReference
  2
*U16
 10
0.0
 20
0.0
 30
0.0
  0
INSERT
  5
2766
330
26F7
100
AcDbEntity
  8
本体
  6
ByBlock
 62
     0
370
    -2
380
     1
100
AcDbBlockReference
  2
*U16
 10
12.5569
 20
0.0
 30
0.0
  0
INSERT
  5
2767
330
26F7
100
AcDbEntity
  8
本体
  6
ByBlock
 62
     0
370
    -2
380
     1
100
AcDbBlockReference
  2
*U16
 10
25.1138
 20
0.0
 30
0.0
  0
INSERT
  5
2768
330
26F7
100
AcDbEntity
  8
本体
  6
ByBlock
 62
     0
370
    -2
380
     1
100
AcDbBlockReference
  2
*U16
 10
37.6707
 20
0.0
 30
0.0
  0
INSERT
  5
2769
330
26F7
100
AcDbEntity
  8
本体
  6
ByBlock
 62
     0
370
    -2
380
     1
100
AcDbBlockReference
  2
*U16
 10
50.2276
 20
0.0
 30
0.0
  0
INSERT
  5
276A
330
26F7
100
AcDbEntity
  8
本体
  6
ByBlock
 62
     0
370
    -2
380
     1
100
AcDbBlockReference
  2
*U16
 10
62.7845
 20
0.0
 30
0.0
  0
INSERT
  5
276B
330
26F7
100
AcDbEntity
  8
本体
  6
ByBlock
 62
     0
370
    -2
380
     1
100
AcDbBlockReference
  2
*U16
 10
75.3414
 20
0.0
 30
0.0
  0
INSERT
  5
276C
330
26F7
100
AcDbEntity
  8
本体
  6
ByBlock
 62
     0
370
    -2
380
     1
100
AcDbBlockReference
  2
*U16
 10
87.8983
 20
0.0
 30
0.0
  0
INSERT
  5
276D
330
26F7
100
AcDbEntity
  8
本体
  6
ByBlock
 62
     0
370
    -2
380
     1
100
AcDbBlockReference
  2
*U16
 10
100.4552
 20
0.0
 30
0.0
  0
INSERT
  5
276E
330
26F7
100
AcDbEntity
  8
本体
  6
ByBlock
 62
     0
370
    -2
380
     1
100
AcDbBlockReference
  2
*U16
 10
113.0121
 20
0.0
 30
0.0
  0
INSERT
  5
276F
330
26F7
100
AcDbEntity
  8
本体
  6
ByBlock
 62
     0
370
    -2
380
     1
100
AcDbBlockReference
  2
*U16
 10
125.569
 20
0.0
 30
0.0
  0
INSERT
  5
2770
330
26F7
100
AcDbEntity
  8
本体
  6
ByBlock
 62
     0
370
    -2
380
     1
100
AcDbBlockReference
  2
*U16
 10
138.1259
 20
0.0
 30
0.0
  0
INSERT
  5
2771
330
26F7
100
AcDbEntity
  8
本体
  6
ByBlock
 62
     0
370
    -2
380
     1
100
AcDbBlockReference
  2
*U16
 10
150.6828
 20
0.0
 30
0.0
  0
INSERT
  5
2772
330
26F7
100
AcDbEntity
  8
本体
  6
ByBlock
 62
     0
370
    -2
380
     1
100
AcDbBlockReference
  2
*U16
 10
163.2397
 20
0.0
 30
0.0
  0
INSERT
  5
2773
330
26F7
100
AcDbEntity
  8
本体
  6
ByBlock
 62
     0
370
    -2
380
     1
100
AcDbBlockReference
  2
*U16
 10
175.7966
 20
0.0
 30
0.0
  0
INSERT
  5
2774
330
26F7
100
AcDbEntity
  8
本体
  6
ByBlock
 62
     0
370
    -2
380
     1
100
AcDbBlockReference
  2
*U16
 10
188.3535
 20
0.0
 30
0.0
  0
INSERT
  5
2775
330
26F7
100
AcDbEntity
  8
本体
  6
ByBlock
 62
     0
370
    -2
380
     1
100
AcDbBlockReference
  2
*U16
 10
200.9104
 20
0.0
 30
0.0
  0
INSERT
  5
2776
330
26F7
100
AcDbEntity
  8
本体
  6
ByBlock
 62
     0
370
    -2
380
     1
100
AcDbBlockReference
  2
*U16
 10
213.4673
 20
0.0
 30
0.0
  0
INSERT
  5
2777
330
26F7
100
AcDbEntity
  8
本体
  6
ByBlock
 62
     0
370
    -2
380
     1
100
AcDbBlockReference
  2
*U16
 10
226.0242
 20
0.0
 30
0.0
  0
INSERT
  5
2778
330
26F7
100
AcDbEntity
  8
本体
  6
ByBlock
 62
     0
370
    -2
380
     1
100
AcDbBlockReference
  2
*U16
 10
238.5811
 20
0.0
 30
0.0
  0
INSERT
  5
2779
330
26F7
100
AcDbEntity
  8
本体
  6
ByBlock
 62
     0
370
    -2
380
     1
100
AcDbBlockReference
  2
*U16
 10
251.138
 20
0.0
 30
0.0
  0
INSERT
  5
277A
330
26F7
100
AcDbEntity
  8
本体
  6
ByBlock
 62
     0
370
    -2
380
     1
100
AcDbBlockReference
  2
*U16
 10
263.6949
 20
0.0
 30
0.0
  0
INSERT
  5
277B
330
26F7
100
AcDbEntity
  8
本体
  6
ByBlock
 62
     0
370
    -2
380
     1
100
AcDbBlockReference
  2
*U16
 10
276.2518
 20
0.0
 30
0.0
  0
INSERT
  5
277C
330
26F7
100
AcDbEntity
  8
本体
  6
ByBlock
 62
     0
370
    -2
380
     1
100
AcDbBlockReference
  2
*U16
 10
288.8087
 20
0.0
 30
0.0
  0
INSERT
  5
277D
330
26F7
100
AcDbEntity
  8
本体
  6
ByBlock
 62
     0
370
    -2
380
     1
100
AcDbBlockReference
  2
*U16
 10
301.3656000000001
 20
0.0
 30
0.0
  0
INSERT
  5
277E
330
26F7
100
AcDbEntity
  8
本体
  6
ByBlock
 62
     0
370
    -2
380
     1
100
AcDbBlockReference
  2
*U16
 10
313.9225
 20
0.0
 30
0.0
  0
INSERT
  5
277F
330
26F7
100
AcDbEntity
  8
本体
  6
ByBlock
 62
     0
370
    -2
380
     1
100
AcDbBlockReference
  2
*U16
 10
326.4794
 20
0.0
 30
0.0
  0
INSERT
  5
2780
330
26F7
100
AcDbEntity
  8
本体
  6
ByBlock
 62
     0
370
    -2
380
     1
100
AcDbBlockReference
  2
*U16
 10
339.0363000000001
 20
0.0
 30
0.0
  0
INSERT
  5
2781
330
26F7
100
AcDbEntity
  8
本体
  6
ByBlock
 62
     0
370
    -2
380
     1
100
AcDbBlockReference
  2
*U16
 10
351.5932
 20
0.0
 30
0.0
  0
INSERT
  5
2782
330
26F7
100
AcDbEntity
  8
本体
  6
ByBlock
 62
     0
370
    -2
380
     1
100
AcDbBlockReference
  2
*U16
 10
364.1501
 20
0.0
 30
0.0
  0
INSERT
  5
2783
330
26F7
100
AcDbEntity
  8
本体
  6
ByBlock
 62
     0
370
    -2
380
     1
100
AcDbBlockReference
  2
*U16
 10
376.707
 20
0.0
 30
0.0
  0
INSERT
  5
2784
330
26F7
100
AcDbEntity
  8
本体
  6
ByBlock
 62
     0
370
    -2
380
     1
100
AcDbBlockReference
  2
*U16
 10
389.2639
 20
0.0
 30
0.0
  0
INSERT
  5
2785
330
26F7
100
AcDbEntity
  8
本体
  6
ByBlock
 62
     0
370
    -2
380
     1
100
AcDbBlockReference
  2
*U16
 10
401.8208
 20
0.0
 30
0.0
  0
INSERT
  5
2786
330
26F7
100
AcDbEntity
  8
本体
  6
ByBlock
 62
     0
370
    -2
380
     1
100
AcDbBlockReference
  2
*U16
 10
414.3777
 20
0.0
 30
0.0
  0
INSERT
  5
2787
330
26F7
100
AcDbEntity
  8
本体
  6
ByBlock
 62
     0
370
    -2
380
     1
100
AcDbBlockReference
  2
*U16
 10
426.9346
 20
0.0
 30
0.0
  0
INSERT
  5
2788
330
26F7
100
AcDbEntity
  8
本体
  6
ByBlock
 62
     0
370
    -2
380
     1
100
AcDbBlockReference
  2
*U16
 10
439.4915
 20
0.0
 30
0.0
  0
INSERT
  5
2789
330
26F7
100
AcDbEntity
  8
本体
  6
ByBlock
 62
     0
370
    -2
380
     1
100
AcDbBlockReference
  2
*U16
 10
452.0484
 20
0.0
 30
0.0
  0
INSERT
  5
278A
330
26F7
100
AcDbEntity
  8
本体
  6
ByBlock
 62
     0
370
    -2
380
     1
100
AcDbBlockReference
  2
*U16
 10
464.6053
 20
0.0
 30
0.0
  0
INSERT
  5
278B
330
26F7
100
AcDbEntity
  8
本体
  6
ByBlock
 62
     0
370
    -2
380
     1
100
AcDbBlockReference
  2
*U16
 10
477.1622
 20
0.0
 30
0.0
  0
INSERT
  5
278C
330
26F7
100
AcDbEntity
  8
本体
  6
ByBlock
 62
     0
370
    -2
380
     1
100
AcDbBlockReference
  2
*U16
 10
489.7191
 20
0.0
 30
0.0
  0
INSERT
  5
278D
330
26F7
100
AcDbEntity
  8
本体
  6
ByBlock
 62
     0
370
    -2
380
     1
100
AcDbBlockReference
  2
*U16
 10
502.2759999999999
 20
0.0
 30
0.0
  0
INSERT
  5
278E
330
26F7
100
AcDbEntity
  8
本体
  6
ByBlock
 62
     0
370
    -2
380
     1
100
AcDbBlockReference
  2
*U16
 10
514.8329
 20
0.0
 30
0.0
  0
INSERT
  5
278F
330
26F7
100
AcDbEntity
  8
本体
  6
ByBlock
 62
     0
370
    -2
380
     1
100
AcDbBlockReference
  2
*U16
 10
527.3898
 20
0.0
 30
0.0
  0
INSERT
  5
2790
330
26F7
100
AcDbEntity
  8
本体
  6
ByBlock
 62
     0
370
    -2
380
     1
100
AcDbBlockReference
  2
*U16
 10
539.9467
 20
0.0
 30
0.0
  0
INSERT
  5
2791
330
26F7
100
AcDbEntity
  8
本体
  6
ByBlock
 62
     0
370
    -2
380
     1
100
AcDbBlockReference
  2
*U16
 10
552.5036
 20
0.0
 30
0.0
  0
INSERT
  5
2792
330
26F7
100
AcDbEntity
  8
本体
  6
ByBlock
 62
     0
370
    -2
380
     1
100
AcDbBlockReference
  2
*U16
 10
565.0605
 20
0.0
 30
0.0
  0
INSERT
  5
2793
330
26F7
100
AcDbEntity
  8
本体
  6
ByBlock
 62
     0
370
    -2
380
     1
100
AcDbBlockReference
  2
*U16
 10
577.6174
 20
0.0
 30
0.0
  0
INSERT
  5
2794
330
26F7
100
AcDbEntity
  8
本体
  6
ByBlock
 62
     0
370
    -2
380
     1
100
AcDbBlockReference
  2
*U16
 10
590.1743
 20
0.0
 30
0.0
  0
INSERT
  5
2795
330
26F7
100
AcDbEntity
  8
本体
  6
ByBlock
 62
     0
370
    -2
380
     1
100
AcDbBlockReference
  2
*U16
 10
602.7312000000001
 20
0.0
 30
0.0
  0
INSERT
  5
2796
330
26F7
100
AcDbEntity
  8
本体
  6
ByBlock
 62
     0
370
    -2
380
     1
100
AcDbBlockReference
  2
*U16
 10
615.2880999999999
 20
0.0
 30
0.0
  0
INSERT
  5
2797
330
26F7
100
AcDbEntity
  8
本体
  6
ByBlock
 62
     0
370
    -2
380
     1
100
AcDbBlockReference
  2
*U16
 10
627.845
 20
0.0
 30
0.0
  0
INSERT
  5
2798
330
26F7
100
AcDbEntity
  8
本体
  6
ByBlock
 62
     0
370
    -2
380
     1
100
AcDbBlockReference
  2
*U16
 10
640.4019
 20
0.0
 30
0.0
  0
INSERT
  5
2799
330
26F7
100
AcDbEntity
  8
本体
  6
ByBlock
 62
     0
370
    -2
380
     1
100
AcDbBlockReference
  2
*U16
 10
652.9588
 20
0.0
 30
0.0
  0
INSERT
  5
279A
330
26F7
100
AcDbEntity
  8
本体
  6
ByBlock
 62
     0
370
    -2
380
     1
100
AcDbBlockReference
  2
*U16
 10
665.5157
 20
0.0
 30
0.0
  0
INSERT
  5
279B
330
26F7
100
AcDbEntity
  8
本体
  6
ByBlock
 62
     0
370
    -2
380
     1
100
AcDbBlockReference
  2
*U16
 10
678.0726000000001
 20
0.0
 30
0.0
  0
INSERT
  5
279C
330
26F7
100
AcDbEntity
  8
本体
  6
ByBlock
 62
     0
370
    -2
380
     1
100
AcDbBlockReference
  2
*U16
 10
690.6295
 20
0.0
 30
0.0
  0
INSERT
  5
279D
330
26F7
100
AcDbEntity
  8
本体
  6
ByBlock
 62
     0
370
    -2
380
     1
100
AcDbBlockReference
  2
*U16
 10
703.1864
 20
0.0
 30
0.0
  0
INSERT
  5
279E
330
26F7
100
AcDbEntity
  8
本体
  6
ByBlock
 62
     0
370
    -2
380
     1
100
AcDbBlockReference
  2
*U16
 10
715.7433000000001
 20
0.0
 30
0.0
  0
INSERT
  5
279F
330
26F7
100
AcDbEntity
  8
本体
  6
ByBlock
 62
     0
370
    -2
380
     1
100
AcDbBlockReference
  2
*U16
 10
728.3002
 20
0.0
 30
0.0
  0
INSERT
  5
27A0
330
26F7
100
AcDbEntity
  8
本体
  6
ByBlock
 62
     0
370
    -2
380
     1
100
AcDbBlockReference
  2
*U16
 10
740.8571000000001
 20
0.0
 30
0.0
  0
INSERT
  5
27A1
330
26F7
100
AcDbEntity
  8
本体
  6
ByBlock
 62
     0
370
    -2
380
     1
100
AcDbBlockReference
  2
*U16
 10
753.4139999999999
 20
0.0
 30
0.0
  0
INSERT
  5
27A2
330
26F7
100
AcDbEntity
  8
本体
  6
ByBlock
 62
     0
370
    -2
380
     1
100
AcDbBlockReference
  2
*U16
 10
765.9709
 20
0.0
 30
0.0
  0
INSERT
  5
27A3
330
26F7
100
AcDbEntity
  8
本体
  6
ByBlock
 62
     0
370
    -2
380
     1
100
AcDbBlockReference
  2
*U16
 10
778.5278
 20
0.0
 30
0.0
  0
INSERT
  5
27A4
330
26F7
100
AcDbEntity
  8
本体
  6
ByBlock
 62
     0
370
    -2
380
     1
100
AcDbBlockReference
  2
*U16
 10
791.0847
 20
0.0
 30
0.0
  0
INSERT
  5
27A5
330
26F7
100
AcDbEntity
  8
本体
  6
ByBlock
 62
     0
370
    -2
380
     1
100
AcDbBlockReference
  2
*U16
 10
803.6416
 20
0.0
 30
0.0
  0
INSERT
  5
27A6
330
26F7
100
AcDbEntity
  8
本体
  6
ByBlock
 62
     0
370
    -2
380
     1
100
AcDbBlockReference
  2
*U16
 10
816.1985000000001
 20
0.0
 30
0.0
  0
INSERT
  5
27A7
330
26F7
100
AcDbEntity
  8
本体
  6
ByBlock
 62
     0
370
    -2
380
     1
100
AcDbBlockReference
  2
*U16
 10
828.7554
 20
0.0
 30
0.0
  0
INSERT
  5
27A8
330
26F7
100
AcDbEntity
  8
本体
  6
ByBlock
 62
     0
370
    -2
380
     1
100
AcDbBlockReference
  2
*U16
 10
841.3123
 20
0.0
 30
0.0
  0
INSERT
  5
27A9
330
26F7
100
AcDbEntity
  8
本体
  6
ByBlock
 62
     0
370
    -2
380
     1
100
AcDbBlockReference
  2
*U16
 10
853.8692000000001
 20
0.0
 30
0.0
  0
INSERT
  5
27AA
330
26F7
100
AcDbEntity
  8
本体
  6
ByBlock
 62
     0
370
    -2
380
     1
100
AcDbBlockReference
  2
*U16
 10
866.4260999999999
 20
0.0
 30
0.0
  0
INSERT
  5
27AB
330
26F7
100
AcDbEntity
  8
本体
  6
ByBlock
 62
     0
370
    -2
380
     1
100
AcDbBlockReference
  2
*U16
 10
878.983
 20
0.0
 30
0.0
  0
INSERT
  5
27AC
330
26F7
100
AcDbEntity
  8
本体
  6
ByBlock
 62
     0
370
    -2
380
     1
100
AcDbBlockReference
  2
*U16
 10
891.5399
 20
0.0
 30
0.0
  0
INSERT
  5
27AD
330
26F7
100
AcDbEntity
  8
本体
  6
ByBlock
 62
     0
370
    -2
380
     1
100
AcDbBlockReference
  2
*U16
 10
904.0968000000001
 20
0.0
 30
0.0
  0
INSERT
  5
27AE
330
26F7
100
AcDbEntity
  8
本体
  6
ByBlock
 62
     0
370
    -2
380
     1
100
AcDbBlockReference
  2
*U16
 10
916.6537000000001
 20
0.0
 30
0.0
  0
INSERT
  5
27AF
330
26F7
100
AcDbEntity
  8
本体
  6
ByBlock
 62
     0
370
    -2
380
     1
100
AcDbBlockReference
  2
*U16
 10
929.2106
 20
0.0
 30
0.0
  0
INSERT
  5
27B0
330
26F7
100
AcDbEntity
  8
本体
  6
ByBlock
 62
     0
370
    -2
380
     1
100
AcDbBlockReference
  2
*U16
 10
941.7675
 20
0.0
 30
0.0
  0
INSERT
  5
27B1
330
26F7
100
AcDbEntity
  8
本体
  6
ByBlock
 62
     0
370
    -2
380
     1
100
AcDbBlockReference
  2
*U16
 10
954.3244000000001
 20
0.0
 30
0.0
  0
INSERT
  5
27B2
330
26F7
100
AcDbEntity
  8
本体
  6
ByBlock
 62
     0
370
    -2
380
     1
100
AcDbBlockReference
  2
*U16
 10
966.8813
 20
0.0
 30
0.0
  0
ENDBLK
  5
26F9
330
26F7
100
AcDbEntity
  8
0
 48
3.0
100
AcDbBlockEnd
  0
BLOCK
  5
280D
330
280C
100
AcDbEntity
  8
0
 48
3.0
100
AcDbBlockBegin
  2
*D18
 70
     1
 10
0.0
 20
0.0
 30
0.0
  3
*D18
  1

  0
LINE
  5
280E
330
280C
100
AcDbEntity
  8
本体
 62
     0
 48
3.0
370
    -2
100
AcDbLine
 10
998.3945972221627
 20
522.9692677332953
 30
0.0
 11
1002.894597222163
 21
522.9692677332953
 31
0.0
  0
LINE
  5
280F
330
280C
100
AcDbEntity
  8
本体
 62
     0
 48
3.0
370
    -2
100
AcDbLine
 10
997.8945972221627
 20
519.769267733295
 30
0.0
 11
1002.894597222163
 21
519.769267733295
 31
0.0
  0
LINE
  5
2810
330
280C
100
AcDbEntity
  8
本体
 62
     0
 48
3.0
370
    -2
100
AcDbLine
 10
1017.894597222162
 20
537.9692677332952
 30
0.0
 11
1017.894597222162
 21
552.9692677332953
 31
0.0
  0
LINE
  5
2811
330
280C
100
AcDbEntity
  8
本体
 62
     0
 48
3.0
370
    -2
100
AcDbLine
 10
1017.894597222162
 20
504.769267733295
 30
0.0
 11
1017.894597222162
 21
425.0992169718736
 31
0.0
  0
LINE
  5
2812
330
280C
100
AcDbEntity
  8
本体
 62
     0
 48
3.0
370
    -2
100
AcDbLine
 10
1017.894597222162
 20
522.9692677332953
 30
0.0
 11
1017.894597222162
 21
519.769267733295
 31
0.0
  0
INSERT
  5
2813
330
280C
100
AcDbEntity
  8
本体
 62
     0
 48
3.0
370
    -2
100
AcDbBlockReference
  2
_Open30
 10
1017.894597222162
 20
522.9692677332953
 30
0.0
 41
15.0
 42
15.0
 43
15.0
 50
270.0
  0
INSERT
  5
2814
330
280C
100
AcDbEntity
  8
本体
 62
     0
 48
3.0
370
    -2
100
AcDbBlockReference
  2
_Open30
 10
1017.894597222162
 20
519.769267733295
 30
0.0
 41
15.0
 42
15.0
 43
15.0
 50
90.0
  0
MTEXT
  5
2815
330
280C
100
AcDbEntity
  8
本体
 62
     0
 48
3.0
100
AcDbMText
 10
997.8945972221625
 20
457.4342423525845
 30
0.0
 40
30.0
 41
0.0
 71
     5
 72
     1
  1
3.2
 11
0.0000000000000001
 21
1.0
 31
0.0
 73
     1
 44
1.0
1001
ACAD
1000
MTEXTBEGIN
1070
    73
1070
     1
1070
    44
1040
1.0
1070
    74
1070
     0
1000
MTEXTEND
  0
POINT
  5
2816
330
280C
100
AcDbEntity
  8
Defpoints
 62
     0
 48
3.0
100
AcDbPoint
 10
1018.394597222163
 20
522.9692677332953
 30
0.0
  0
POINT
  5
2817
330
280C
100
AcDbEntity
  8
Defpoints
 62
     0
 48
3.0
100
AcDbPoint
 10
1017.894597222162
 20
519.769267733295
 30
0.0
  0
POINT
  5
2818
330
280C
100
AcDbEntity
  8
Defpoints
 62
     0
 48
3.0
100
AcDbPoint
 10
1017.894597222162
 20
519.769267733295
 30
0.0
  0
ENDBLK
  5
2819
330
280C
100
AcDbEntity
  8
0
 48
3.0
100
AcDbBlockEnd
  0
BLOCK
  5
281D
330
281A
100
AcDbEntity
  8
0
 48
3.0
100
AcDbBlockBegin
  2
A$C3B5E25B0
 70
     0
 10
0.0
 20
0.0
 30
0.0
  3
A$C3B5E25B0
  1

  0
DIMENSION
  5
281B
330
281A
100
AcDbEntity
  8
本体
 48
3.0
100
AcDbDimension
  2
*D18
 10
24.67948719999959
 20
-3.200000000000272
 30
0.0
 11
4.679487199999471
 21
-65.53502538071075
 31
0.0
 12
-993.2151100221631
 22
-522.9692677332953
 32
0.0
 71
     5
 42
3.200000000000272
  3
ISO-25
100
AcDbAlignedDimension
 13
25.17948719999959
 23
0.0
 33
0.0
 14
24.67948719999959
 24
-3.200000000000272
 34
0.0
 50
90.0
100
AcDbRotatedDimension
  0
ENDBLK
  5
281E
330
281A
100
AcDbEntity
  8
0
 48
3.0
100
AcDbBlockEnd
  0
ENDSEC
  0
SECTION
  2
ENTITIES
  0
LINE
  5
12
330
2
100
AcDbEntity
  8
外枠
 48
80.0
370
     9
100
AcDbLine
 10
0.0
 20
0.0
 30
0.0
 11
2789.511161023067
 21
0.0
 31
0.0
  0
LINE
  5
13
330
2
100
AcDbEntity
  8
外枠
 48
80.0
370
     9
100
AcDbLine
 10
2789.511161023071
 20
1973.26911249564
 30
0.0
 11
0.0
 21
1973.26911249564
 31
0.0
  0
LINE
  5
14
330
2
100
AcDbEntity
  8
外枠
 48
100.0
370
     9
100
AcDbLine
 10
10.0
 20
10.0
 30
0.0
 11
2780.119625023061
 21
10.0
 31
0.0
  0
LINE
  5
17
330
2
100
AcDbEntity
  8
外枠
  6
Continuous
 48
100.0
370
     9
100
AcDbLine
 10
9.999999999996362
 20
155.3992728208031
 30
0.0
 11
2780.119625023061
 21
155.3992728207995
 31
0.0
  0
LINE
  5
18
330
2
100
AcDbEntity
  8
外枠
  6
Continuous
 48
100.0
370
     9
100
AcDbLine
 10
9.999999999996362
 20
160.0950408208045
 30
0.0
 11
2780.119625023061
 21
160.0950408207973
 31
0.0
  0
LINE
  5
19
330
2
100
AcDbEntity
  8
外枠
 48
100.0
370
     9
100
AcDbLine
 10
10.0
 20
1963.877576495633
 30
0.0
 11
2780.119625023053
 21
1963.877576495637
 31
0.0
  0
LINE
  5
1A
330
2
100
AcDbEntity
  8
外枠
 48
80.0
370
     9
100
AcDbLine
 10
0.0
 20
0.0
 30
0.0
 11
0.0
 21
1973.26911249564
 31
0.0
  0
LINE
  5
1B
330
2
100
AcDbEntity
  8
外枠
 48
100.0
370
     9
100
AcDbLine
 10
10.0
 20
1963.877576495633
 30
0.0
 11
10.0
 21
10.0
 31
0.0
  0
LINE
  5
1C
330
2
100
AcDbEntity
  8
外枠
  6
Continuous
 48
100.0
370
     9
100
AcDbLine
 10
10.0
 20
82.69963641040158
 30
0.0
 11
1153.530108552004
 21
82.69963641039794
 31
0.0
  0
MTEXT
  5
1E
330
2
100
AcDbEntity
  8
外枠
  6
Continuous
 48
100.0
370
     9
100
AcDbMText
 10
246.8574963386418
 20
64.81814764649607
 30
0.0
 40
35.0
 41
532.9183
 71
     1
 72
     5
  1
630\U+00D7995\U+00D732/97
 73
     1
 44
1.0
1001
ACAD
1000
MTEXTBEGIN
1070
    73
1070
     1
1070
    44
1040
1.0
1070
    74
1070
     0
1000
MTEXTEND
  0
MTEXT
  5
1F
330
2
100
AcDbEntity
  8
外枠
  6
Continuous
 48
100.0
370
     9
100
AcDbMText
 10
76.61659604009765
 20
137.3760680266387
 30
0.0
 40
30.0
 41
126.3036
 71
     1
 72
     5
  1
T-2
 73
     1
 44
1.0
1001
ACAD
1000
MTEXTBEGIN
1070
    73
1070
     1
1070
    44
1040
1.0
1070
    74
1070
     0
1000
MTEXTEND
  0
MTEXT
  5
20
330
2
100
AcDbEntity
  8
外枠
  6
Continuous
 48
100.0
370
     9
100
AcDbMText
 10
82.93258377064921
 20
59.95966632915224
 30
0.0
 40
35.0
 41
88.86979999999999
 71
     1
 72
     5
  1
EKH
 73
     1
 44
1.0
1001
ACAD
1000
MTEXTBEGIN
1070
    73
1070
     1
1070
    44
1040
1.0
1070
    74
1070
     0
1000
MTEXTEND
  0
LINE
  5
21
330
2
100
AcDbEntity
  8
外枠
 48
100.0
370
     9
100
AcDbLine
 10
45.0
 20
155.3992728208031
 30
0.0
 11
45.0
 21
10.0
 31
0.0
  0
MTEXT
  5
22
330
2
100
AcDbEntity
  8
外枠
  6
Continuous
 48
100.0
370
     9
100
AcDbMText
 10
15.05670849094895
 20
75.82038473524153
 30
0.0
 40
20.0
 41
23.52947333656417
 71
     1
 72
     5
  1
品\P番
 73
     1
 44
1.0
1001
ACAD
1000
MTEXTBEGIN
1070
    73
1070
     1
1070
    44
1040
1.0
1070
    74
1070
     0
1000
MTEXTEND
  0
MTEXT
  5
23
330
2
100
AcDbEntity
  8
外枠
  6
Continuous
 48
100.0
370
     9
100
AcDbMText
 10
14.92010060012399
 20
149.3317229429121
 30
0.0
 40
20.0
 41
30.07989939987533
 71
     1
 72
     5
  1
荷\P重
 73
     1
 44
1.0
1001
ACAD
1000
MTEXTBEGIN
1070
    73
1070
     1
1070
    44
1040
1.0
1070
    74
1070
     0
1000
MTEXTEND
  0
LINE
  5
24
330
2
100
AcDbEntity
  8
外枠
 48
100.0
370
     9
100
AcDbLine
 10
179.1040495562847
 20
155.3992728208031
 30
0.0
 11
179.1040495562847
 21
10.0
 31
0.0
  0
MTEXT
  5
25
330
2
100
AcDbEntity
  8
外枠
  6
Continuous
 48
100.0
370
     9
100
AcDbMText
 10
271.7517807368968
 20
133.8572910967996
 30
0.0
 40
30.0
 41
271.6208
 71
     1
 72
     5
  1
500用
 73
     1
 44
1.0
1001
ACAD
1000
MTEXTBEGIN
1070
    73
1070
     1
1070
    44
1040
1.0
1070
    74
1070
     0
1000
MTEXTEND
  0
MTEXT
  5
26
330
2
100
AcDbEntity
  8
外枠
  6
Continuous
 48
100.0
370
     9
100
AcDbMText
 10
184.4346535744698
 20
149.3074501239389
 30
0.0
 40
20.0
 41
29.6694
 71
     1
 72
     5
  1
溝幅
 73
     1
 44
1.0
1001
ACAD
1000
MTEXTBEGIN
1070
    73
1070
     1
1070
    44
1040
1.0
1070
    74
1070
     0
1000
MTEXTEND
  0
LINE
  5
27
330
2
100
AcDbEntity
  8
外枠
 48
100.0
370
     9
100
AcDbLine
 10
214.1040495562847
 20
155.3992728208031
 30
0.0
 11
214.1040495562847
 21
82.69963641040158
 31
0.0
  0
MTEXT
  5
28
330
2
100
AcDbEntity
  8
外枠
  6
Continuous
 48
100.0
370
     9
100
AcDbMText
 10
477.8955451146976
 20
149.3074501239389
 30
0.0
 40
20.0
 41
29.6694
 71
     1
 72
     5
  1
品名
 73
     1
 44
1.0
1001
ACAD
1000
MTEXTBEGIN
1070
    73
1070
     1
1070
    44
1040
1.0
1070
    74
1070
     0
1000
MTEXTEND
  0
LINE
  5
29
330
2
100
AcDbEntity
  8
外枠
 48
100.0
370
     9
100
AcDbLine
 10
472.5649410965124
 20
155.3992728208031
 30
0.0
 11
472.5649410965124
 21
82.69963641040158
 31
0.0
  0
LINE
  5
2A
330
2
100
AcDbEntity
  8
外枠
 48
100.0
370
     9
100
AcDbLine
 10
507.5649410965125
 20
155.3992728208031
 30
0.0
 11
507.5649410965125
 21
82.69963641040158
 31
0.0
  0
MTEXT
  5
2B
330
2
100
AcDbEntity
  8
外枠
  6
Continuous
 48
100.0
370
     9
100
AcDbMText
 10
728.477887653953
 20
76.92551173516403
 30
0.0
 40
20.0
 41
664.6118999999999
 71
     1
 72
     5
  1
摘\P要
 73
     1
 44
1.0
1001
ACAD
1000
MTEXTBEGIN
1070
    73
1070
     1
1070
    44
1040
1.0
1070
    74
1070
     0
1000
MTEXTEND
  0
LINE
  5
2C
330
2
100
AcDbEntity
  8
外枠
 48
100.0
370
     9
100
AcDbLine
 10
723.8282373115871
 20
82.6996364103943
 30
0.0
 11
723.8282373115871
 21
9.999999999992724
 31
0.0
  0
LINE
  5
2F
330
2
100
AcDbEntity
  8
外枠
 48
100.0
370
     9
100
AcDbLine
 10
758.8282373115871
 20
82.6996364103943
 30
0.0
 11
758.8282373115871
 21
9.999999999992724
 31
0.0
  0
LINE
  5
31
330
2
100
AcDbEntity
  8
外枠
 48
100.0
370
     9
100
AcDbLine
 10
974.9513069700951
 20
82.6996364103943
 30
0.0
 11
974.9513069700951
 21
9.999999999992724
 31
0.0
  0
MTEXT
  5
32
330
2
100
AcDbEntity
  8
外枠
  6
Continuous
 48
100.0
370
     9
100
AcDbMText
 10
979.7329598959768
 20
74.84825461820583
 30
0.0
 40
20.0
 41
31.38947761565365
 71
     1
 72
     5
  1
材\P質
 73
     1
 44
1.0
1001
ACAD
1000
MTEXTBEGIN
1070
    73
1070
     1
1070
    44
1040
1.0
1070
    74
1070
     0
1000
MTEXTEND
  0
LINE
  5
33
330
2
100
AcDbEntity
  8
外枠
 48
100.0
370
     9
100
AcDbLine
 10
1009.951306970095
 20
82.6996364103943
 30
0.0
 11
1009.951306970095
 21
9.999999999992724
 31
0.0
  0
LINE
  5
37
330
2
100
AcDbEntity
  8
外枠
 48
80.0
370
     9
100
AcDbLine
 10
2789.511161023067
 20
0.0
 30
0.0
 11
2789.511161023071
 21
1973.26911249564
 31
0.0
  0
LINE
  5
38
330
2
100
AcDbEntity
  8
外枠
 48
100.0
370
     9
100
AcDbLine
 10
2780.119625023053
 20
1963.877576495637
 30
0.0
 11
2780.119625023061
 21
10.0
 31
0.0
  0
LINE
  5
3A
330
2
100
AcDbEntity
  8
外枠
 48
3.0
100
AcDbLine
 10
1607.072254912545
 20
61.67068719952067
 30
0.0
 11
2262.173600934632
 21
61.67068719952067
 31
0.0
  0
MTEXT
  5
3B
330
2
100
AcDbEntity
  8
外枠
  6
Continuous
 48
100.0
370
     9
100
AcDbMText
 10
1683.622173868318
 20
50.71504764095289
 30
0.0
 40
30.00024
 41
539.4827578564582
 71
     1
 72
     5
  1
T A K A R A   G R A T I N G
 73
     1
 44
1.0
1001
ACAD
1000
MTEXTBEGIN
1070
    73
1070
     1
1070
    44
1040
1.0
1070
    74
1070
     0
1000
MTEXTEND
  0
MTEXT
  5
3C
330
2
100
AcDbEntity
  8
外枠
  6
Continuous
 48
100.0
370
     9
100
AcDbMText
 10
1728.02061463669
 20
127.1672938476838
 30
0.0
 40
30.0
 41
282.8297
 71
     1
 72
     5
  1
株 式 会 社
 73
     1
 44
1.0
1001
ACAD
1000
MTEXTBEGIN
1070
    73
1070
     1
1070
    44
1040
1.0
1070
    74
1070
     0
1000
MTEXTEND
  0
LINE
  5
3D
330
2
100
AcDbEntity
  8
外枠
  6
Continuous
 48
100.0
370
     9
100
AcDbLine
 10
1508.680137877982
 20
155.3992728208068
 30
0.0
 11
1508.680137877982
 21
10.00000000000364
 31
0.0
  0
LINE
  5
3E
330
2
100
AcDbEntity
  8
外枠
  6
Continuous
 48
100.0
370
     9
100
AcDbLine
 10
1593.95141853916
 20
155.3992728207995
 30
0.0
 11
1593.95141853916
 21
9.999999999996362
 31
0.0
  0
LINE
  5
3F
330
2
100
AcDbEntity
  8
外枠
  6
Continuous
 48
100.0
370
     9
100
AcDbLine
 10
1616.777813337499
 20
106.634063069062
 30
0.0
 11
1612.463999974505
 21
110.08511375945
 31
0.0
  0
LINE
  5
40
330
2
100
AcDbEntity
  8
外枠
  6
Continuous
 48
100.0
370
     9
100
AcDbLine
 10
1616.777813337499
 20
106.634063069062
 30
0.0
 11
1612.463999974505
 21
103.183012378663
 31
0.0
  0
LINE
  5
41
330
2
100
AcDbEntity
  8
外枠
  6
Continuous
 48
100.0
370
     9
100
AcDbLine
 10
1616.777813337505
 20
113.5361644498489
 30
0.0
 11
1612.463999974505
 21
110.08511375945
 31
0.0
  0
LINE
  5
42
330
2
100
AcDbEntity
  8
外枠
  6
Continuous
 48
100.0
370
     9
100
AcDbLine
 10
1616.777813337499
 20
99.73196168827508
 30
0.0
 11
1612.463999974505
 21
103.183012378663
 31
0.0
  0
MTEXT
  5
43
330
2
100
AcDbEntity
  8
外枠
  6
Continuous
 48
100.0
370
     9
100
AcDbMText
 10
1520.476936402745
 20
137.4995509975779
 30
0.0
 40
20.0
 41
1015.1375
 71
     1
 72
     5
  1
50.9
 73
     1
 44
1.0
1001
ACAD
1000
MTEXTBEGIN
1070
    73
1070
     1
1070
    44
1040
1.0
1070
    74
1070
     0
1000
MTEXTEND
  0
MTEXT
  5
44
330
2
100
AcDbEntity
  8
外枠
  6
Continuous
 48
100.0
370
     9
100
AcDbMText
 10
1568.464698185987
 20
108.4136993179927
 30
0.0
 40
18.0
 41
25.456
 71
     1
 72
     5
  1
kg
 73
     1
 44
1.0
1001
ACAD
1000
MTEXTBEGIN
1070
    73
1070
     1
1070
    44
1040
1.0
1070
    74
1070
     0
1000
MTEXTEND
  0
LINE
  5
45
330
2
100
AcDbEntity
  8
外枠
  6
Continuous
 48
100.0
370
     9
100
AcDbLine
 10
1649.122643507042
 20
139.4120285854742
 30
0.0
 11
1653.436456870031
 21
135.9609778950862
 31
0.0
  0
LINE
  5
46
330
2
100
AcDbEntity
  8
外枠
  6
Continuous
 48
100.0
370
     9
100
AcDbLine
 10
1666.377896959009
 20
139.4120285854742
 30
0.0
 11
1662.06408359602
 21
135.9609778950862
 31
0.0
  0
MTEXT
  5
47
330
2
100
AcDbEntity
  8
外枠
  6
Continuous
 48
100.0
370
     9
100
AcDbMText
 10
1642.840555134189
 20
120.8184913847756
 30
0.0
 40
23.95393639053264
 41
23.85059431815661
 71
     1
 72
     5
  1
{\fＭＳ ゴシック|b0|i0|c128|p49;宝}
 73
     1
 44
1.0
1001
ACAD
1000
MTEXTBEGIN
1070
    73
1070
     1
1070
    44
1040
1.0
1070
    74
1070
     0
1000
MTEXTEND
  0
LINE
  5
48
330
2
100
AcDbEntity
  8
外枠
  6
Continuous
 48
100.0
370
     9
100
AcDbLine
 10
1662.06408359602
 20
135.9609778950862
 30
0.0
 11
1694.408913765557
 21
110.08511375945
 31
0.0
  0
LINE
  5
49
330
2
100
AcDbEntity
  8
外枠
  6
Continuous
 48
100.0
370
     9
100
AcDbLine
 10
1657.750270233026
 20
132.5099272046927
 30
0.0
 11
1690.095100402563
 21
106.634063069062
 31
0.0
  0
LINE
  5
4A
330
2
100
AcDbEntity
  8
外枠
  6
Continuous
 48
100.0
370
     9
100
AcDbLine
 10
1690.095100402563
 20
106.634063069062
 30
0.0
 11
1657.750270233026
 21
80.75819893343123
 31
0.0
  0
LINE
  5
4B
330
2
100
AcDbEntity
  8
外枠
  6
Continuous
 48
100.0
370
     9
100
AcDbLine
 10
1694.408913765557
 20
103.183012378663
 30
0.0
 11
1662.06408359602
 21
77.30714824303777
 31
0.0
  0
LINE
  5
4C
330
2
100
AcDbEntity
  8
外枠
  6
Continuous
 48
100.0
370
     9
100
AcDbLine
 10
1657.750270233026
 20
80.75819893342577
 30
0.0
 11
1625.405440063488
 21
106.634063069062
 31
0.0
  0
LINE
  5
4D
330
2
100
AcDbEntity
  8
外枠
  6
Continuous
 48
100.0
370
     9
100
AcDbLine
 10
1653.436456870031
 20
77.30714824303777
 30
0.0
 11
1621.0916267005
 21
103.183012378663
 31
0.0
  0
LINE
  5
4E
330
2
100
AcDbEntity
  8
外枠
  6
Continuous
 48
100.0
370
     9
100
AcDbLine
 10
1621.0916267005
 20
103.183012378663
 30
0.0
 11
1616.777813337505
 21
99.73196168827508
 31
0.0
  0
LINE
  5
4F
330
2
100
AcDbEntity
  8
外枠
  6
Continuous
 48
100.0
370
     9
100
AcDbLine
 10
1653.436456870031
 20
77.30714824303777
 30
0.0
 11
1649.122643507042
 21
73.85609755263885
 31
0.0
  0
LINE
  5
50
330
2
100
AcDbEntity
  8
外枠
  6
Continuous
 48
100.0
370
     9
100
AcDbLine
 10
1653.436456870031
 20
70.4050468622454
 30
0.0
 11
1649.122643507042
 21
73.85609755263885
 31
0.0
  0
LINE
  5
51
330
2
100
AcDbEntity
  8
外枠
  6
Continuous
 48
100.0
370
     9
100
AcDbLine
 10
1657.750270233026
 20
73.85609755263885
 30
0.0
 11
1653.436456870031
 21
70.4050468622454
 31
0.0
  0
LINE
  5
52
330
2
100
AcDbEntity
  8
外枠
  6
Continuous
 48
100.0
370
     9
100
AcDbLine
 10
1666.377896959009
 20
73.85609755263885
 30
0.0
 11
1662.06408359602
 21
70.4050468622454
 31
0.0
  0
LINE
  5
53
330
2
100
AcDbEntity
  8
外枠
  6
Continuous
 48
100.0
370
     9
100
AcDbLine
 10
1662.06408359602
 20
70.4050468622454
 30
0.0
 11
1657.750270233026
 21
73.85609755263885
 31
0.0
  0
LINE
  5
54
330
2
100
AcDbEntity
  8
外枠
  6
Continuous
 48
100.0
370
     9
100
AcDbLine
 10
1666.377896959009
 20
73.85609755263885
 30
0.0
 11
1662.06408359602
 21
77.30714824303777
 31
0.0
  0
LINE
  5
55
330
2
100
AcDbEntity
  8
外枠
  6
Continuous
 48
100.0
370
     9
100
AcDbLine
 10
1657.750270233026
 20
132.5099272046927
 30
0.0
 11
1625.405440063483
 21
106.634063069062
 31
0.0
  0
LINE
  5
56
330
2
100
AcDbEntity
  8
外枠
  6
Continuous
 48
100.0
370
     9
100
AcDbLine
 10
1653.436456870031
 20
135.9609778950862
 30
0.0
 11
1621.0916267005
 21
110.08511375945
 31
0.0
  0
LINE
  5
57
330
2
100
AcDbEntity
  8
外枠
  6
Continuous
 48
100.0
370
     9
100
AcDbLine
 10
1621.0916267005
 20
110.08511375945
 30
0.0
 11
1616.777813337505
 21
113.5361644498489
 31
0.0
  0
LINE
  5
58
330
2
100
AcDbEntity
  8
外枠
  6
Continuous
 48
100.0
370
     9
100
AcDbLine
 10
1694.408913765557
 20
103.183012378663
 30
0.0
 11
1698.722727128541
 21
99.73196168827508
 31
0.0
  0
LINE
  5
59
330
2
100
AcDbEntity
  8
外枠
  6
Continuous
 48
100.0
370
     9
100
AcDbLine
 10
1703.036540491541
 20
103.183012378663
 30
0.0
 11
1698.722727128541
 21
99.73196168827508
 31
0.0
  0
LINE
  5
5A
330
2
100
AcDbEntity
  8
外枠
  6
Continuous
 48
100.0
370
     9
100
AcDbLine
 10
1698.722727128541
 20
113.5361644498489
 30
0.0
 11
1694.408913765557
 21
110.08511375945
 31
0.0
  0
LINE
  5
5B
330
2
100
AcDbEntity
  8
外枠
  6
Continuous
 48
100.0
370
     9
100
AcDbLine
 10
1698.722727128541
 20
106.634063069062
 30
0.0
 11
1703.036540491541
 21
103.183012378663
 31
0.0
  0
LINE
  5
5C
330
2
100
AcDbEntity
  8
外枠
  6
Continuous
 48
100.0
370
     9
100
AcDbLine
 10
1698.722727128541
 20
113.5361644498489
 30
0.0
 11
1703.036540491541
 21
110.08511375945
 31
0.0
  0
LINE
  5
5D
330
2
100
AcDbEntity
  8
外枠
  6
Continuous
 48
100.0
370
     9
100
AcDbLine
 10
1703.036540491541
 20
110.08511375945
 30
0.0
 11
1698.722727128541
 21
106.634063069062
 31
0.0
  0
LINE
  5
5E
330
2
100
AcDbEntity
  8
外枠
  6
Continuous
 48
100.0
370
     9
100
AcDbLine
 10
1653.436456870031
 20
142.8630792758676
 30
0.0
 11
1649.122643507042
 21
139.4120285854742
 31
0.0
  0
LINE
  5
5F
330
2
100
AcDbEntity
  8
外枠
  6
Continuous
 48
100.0
370
     9
100
AcDbLine
 10
1662.06408359602
 20
142.8630792758676
 30
0.0
 11
1666.377896959009
 21
139.4120285854742
 31
0.0
  0
LINE
  5
60
330
2
100
AcDbEntity
  8
外枠
  6
Continuous
 48
100.0
370
     9
100
AcDbLine
 10
1653.436456870031
 20
142.8630792758676
 30
0.0
 11
1657.750270233026
 21
139.4120285854742
 31
0.0
  0
LINE
  5
61
330
2
100
AcDbEntity
  8
外枠
  6
Continuous
 48
100.0
370
     9
100
AcDbLine
 10
1662.06408359602
 20
142.8630792758676
 30
0.0
 11
1657.750270233026
 21
139.4120285854742
 31
0.0
  0
MTEXT
  5
62
330
2
100
AcDbEntity
  8
外枠
  6
Continuous
 48
100.0
370
     9
100
AcDbMText
 10
1982.246612759803
 20
141.5312822365363
 30
0.0
 40
50.0
 41
269.1378
 71
     1
 72
     5
  1
宝 機 材
 73
     1
 44
1.0
1001
ACAD
1000
MTEXTBEGIN
1070
    73
1070
     1
1070
    44
1040
1.0
1070
    74
1070
     0
1000
MTEXTEND
  0
LINE
  5
63
330
2
100
AcDbEntity
  8
外枠
  6
Continuous
 48
100.0
370
     9
100
AcDbLine
 10
2694.775480668144
 20
78.59726492113622
 30
0.0
 11
2729.639779322774
 21
43.73296626650699
 31
0.0
  0
LINE
  5
64
330
2
100
AcDbEntity
  8
外枠
  6
Continuous
 48
100.0
370
     9
100
AcDbLine
 10
2729.639779322774
 20
113.4615635757691
 30
0.0
 11
2694.775480668144
 21
78.59726492113622
 31
0.0
  0
LINE
  5
66
330
2
100
AcDbEntity
  8
外枠
  6
Continuous
 48
100.0
370
     9
100
AcDbLine
 10
2271.730765417811
 20
155.3992728207995
 30
0.0
 11
2271.730765417811
 21
10.0
 31
0.0
  0
LINE
  5
67
330
2
100
AcDbEntity
  8
外枠
  6
Continuous
 48
100.0
370
     9
100
AcDbLine
 10
2387.385592047314
 20
155.3992728207995
 30
0.0
 11
2387.385592047314
 21
9.999999999996362
 31
0.0
  0
MTEXT
  5
68
330
2
100
AcDbEntity
  8
外枠
  6
Continuous
 48
100.0
370
     9
100
AcDbMText
 10
2518.897970034654
 20
80.52451510381798
 30
0.0
 40
16.435188
 41
274.138099993296
 71
     1
 72
     5
  1
縮尺（A4用紙)
 73
     1
 44
1.0
1001
ACAD
1000
MTEXTBEGIN
1070
    73
1070
     1
1070
    44
1040
1.0
1070
    74
1070
     0
1000
MTEXTEND
  0
LINE
  5
69
330
2
100
AcDbEntity
  8
外枠
  6
Continuous
 48
100.0
370
     9
100
AcDbLine
 10
2503.04041867681
 20
155.3992728207995
 30
0.0
 11
2503.04041867681
 21
9.999999999996362
 31
0.0
  0
LINE
  5
6A
330
2
100
AcDbEntity
  8
外枠
  6
Continuous
 48
100.0
370
     9
100
AcDbLine
 10
2676.662359028593
 20
155.3992728207995
 30
0.0
 11
2676.662359028593
 21
10.0
 31
0.0
  0
MTEXT
  5
6B
330
2
100
AcDbEntity
  8
外枠
  6
Continuous
 48
100.0
370
     9
100
AcDbMText
 10
2557.587330290393
 20
42.24161905183791
 30
0.0
 40
23.47884
 41
274.138099993296
 71
     1
 72
     5
  1
1：10
 73
     1
 44
1.0
1001
ACAD
1000
MTEXTBEGIN
1070
    73
1070
     1
1070
    44
1040
1.0
1070
    74
1070
     0
1000
MTEXTEND
  0
MTEXT
  5
6C
330
2
100
AcDbEntity
  8
外枠
  6
Continuous
 48
100.0
370
     9
100
AcDbMText
 10
2280.290404386422
 20
149.5129012429788
 30
0.0
 40
18.783072
 41
274.13809060176
 71
     1
 72
     5
  1
Check
 73
     1
 44
1.0
1001
ACAD
1000
MTEXTBEGIN
1070
    73
1070
     1
1070
    44
1040
1.0
1070
    74
1070
     0
1000
MTEXTEND
  0
MTEXT
  5
6D
330
2
100
AcDbEntity
  8
外枠
  6
Continuous
 48
100.0
370
     9
100
AcDbMText
 10
2398.03460165154
 20
149.5129012429788
 30
0.0
 40
18.783072
 41
274.13809060176
 71
     1
 72
     5
  1
Draw
 73
     1
 44
1.0
1001
ACAD
1000
MTEXTBEGIN
1070
    73
1070
     1
1070
    44
1040
1.0
1070
    74
1070
     0
1000
MTEXTEND
  0
LINE
  5
6F
330
2
100
AcDbEntity
  8
外枠
  6
Continuous
 48
100.0
370
     9
100
AcDbLine
 10
2676.662359028593
 20
85.04752041039683
 30
0.0
 11
2503.04041867681
 21
85.04752041039683
 31
0.0
  0
MTEXT
  5
70
330
2
100
AcDbEntity
  8
外枠
  6
Continuous
 48
100.0
370
     9
100
AcDbMText
 10
2518.897970034654
 20
153.7304166203976
 30
0.0
 40
16.435188
 41
274.138099993296
 71
     1
 72
     5
  1
図面作成日
 73
     1
 44
1.0
1001
ACAD
1000
MTEXTBEGIN
1070
    73
1070
     1
1070
    44
1040
1.0
1070
    74
1070
     0
1000
MTEXTEND
  0
LINE
  5
72
330
2
100
AcDbEntity
  8
外枠
  6
Continuous
 48
100.0
370
     9
100
AcDbLine
 10
2729.639779322774
 20
43.73296626650699
 30
0.0
 11
2764.504077977396
 21
78.59726492113622
 31
0.0
  0
LINE
  5
73
330
2
100
AcDbEntity
  8
外枠
  6
Continuous
 48
100.0
370
     9
100
AcDbLine
 10
2764.504077977396
 20
78.59726492113622
 30
0.0
 11
2729.639779322774
 21
113.4615635757691
 31
0.0
  0
LINE
  5
7F
330
2
100
AcDbEntity
  8
本体
  6
Continuous
100
AcDbLine
 10
429.6466821860831
 20
1700.371639603063
 30
0.0
 11
1424.646682186083
 21
1700.371639603063
 31
0.0
  0
LINE
  5
81
330
2
100
AcDbEntity
  8
本体
  6
Continuous
100
AcDbLine
 10
429.6466821860831
 20
1695.871639603063
 30
0.0
 11
1424.646682186083
 21
1695.871639603063
 31
0.0
  0
LINE
  5
82
330
2
100
AcDbEntity
  8
本体
  6
Continuous
100
AcDbLine
 10
429.6466821860831
 20
1637.871639603063
 30
0.0
 11
1424.646682186083
 21
1637.871639603063
 31
0.0
  0
LINE
  5
83
330
2
100
AcDbEntity
  8
本体
  6
Continuous
100
AcDbLine
 10
429.6466821860831
 20
1632.871639603063
 30
0.0
 11
1424.646682186083
 21
1632.871639603063
 31
0.0
  0
LINE
  5
84
330
2
100
AcDbEntity
  8
本体
  6
Continuous
100
AcDbLine
 10
429.6466821860831
 20
1537.871639603063
 30
0.0
 11
1424.646682186083
 21
1537.871639603063
 31
0.0
  0
LINE
  5
85
330
2
100
AcDbEntity
  8
本体
  6
Continuous
100
AcDbLine
 10
429.6466821860831
 20
1532.871639603063
 30
0.0
 11
1424.646682186083
 21
1532.871639603063
 31
0.0
  0
LINE
  5
94
330
2
100
AcDbEntity
  8
本体
  6
Continuous
100
AcDbLine
 10
1993.583006492849
 20
1700.371639603063
 30
0.0
 11
2018.58300649285
 21
1700.371639603063
 31
0.0
  0
LINE
  5
95
330
2
100
AcDbEntity
  8
本体
  6
Continuous
100
AcDbLine
 10
2018.58300649285
 20
1700.371639603063
 30
0.0
 11
2018.58300649285
 21
1695.871639603063
 31
0.0
  0
LINE
  5
96
330
2
100
AcDbEntity
  8
本体
  6
Continuous
100
AcDbLine
 10
2025.583006492849
 20
1695.871639603063
 30
0.0
 11
1993.583006492849
 21
1695.871639603063
 31
0.0
  0
LINE
  5
97
330
2
100
AcDbEntity
  8
本体
  6
Continuous
100
AcDbLine
 10
1993.583006492849
 20
1695.871639603063
 30
0.0
 11
1993.583006492849
 21
1700.371639603063
 31
0.0
  0
LINE
  5
98
330
2
100
AcDbEntity
  8
本体
  6
Continuous
100
AcDbLine
 10
2025.583006492849
 20
1074.871639603063
 30
0.0
 11
1993.583006492849
 21
1074.871639603063
 31
0.0
  0
LINE
  5
99
330
2
100
AcDbEntity
  8
本体
  6
Continuous
100
AcDbLine
 10
1993.583006492849
 20
1070.371639603063
 30
0.0
 11
2018.58300649285
 21
1070.371639603063
 31
0.0
  0
LINE
  5
9A
330
2
100
AcDbEntity
  8
本体
  6
Continuous
100
AcDbLine
 10
1993.583006492849
 20
1074.871639603063
 30
0.0
 11
1993.583006492849
 21
1070.371639603063
 31
0.0
  0
LINE
  5
9B
330
2
100
AcDbEntity
  8
本体
  6
Continuous
100
AcDbLine
 10
2018.58300649285
 20
1070.371639603063
 30
0.0
 11
2018.58300649285
 21
1074.871639603063
 31
0.0
  0
LINE
  5
9C
330
2
100
AcDbEntity
  8
本体
  6
Continuous
100
AcDbLine
 10
1993.583006492849
 20
1695.871639603063
 30
0.0
 11
1993.583006492849
 21
1074.871639603063
 31
0.0
  0
LINE
  5
9D
330
2
100
AcDbEntity
  8
本体
  6
Continuous
100
AcDbLine
 10
2025.583006492849
 20
1695.871639603063
 30
0.0
 11
2025.583006492849
 21
1074.871639603063
 31
0.0
  0
DIMENSION
  5
BE
330
2
100
AcDbEntity
  8
寸法線
  6
Continuous
100
AcDbDimension
  2
*D2
 10
1833.583006492849
 20
1070.371639603063
 30
0.0
 11
1813.583006492849
 21
1385.371639603064
 31
0.0
 70
    32
 71
     5
 42
630.0
  3
ISO-25
100
AcDbAlignedDimension
 13
1993.583006492849
 23
1700.371639603063
 33
0.0
 14
1993.583006492849
 24
1070.371639603063
 34
0.0
 50
90.0
100
AcDbRotatedDimension
  0
DIMENSION
  5
D3
330
2
100
AcDbEntity
  8
寸法線
  6
Continuous
100
AcDbDimension
  2
*D3
 10
1913.583006492849
 20
1535.371639603063
 30
0.0
 11
1893.583006492849
 21
1585.371639603063
 31
0.0
 70
    32
 71
     5
 42
100.0
  3
ISO-25
100
AcDbAlignedDimension
 13
1991.083106492849
 23
1635.371639603063
 33
0.0
 14
1991.083106492849
 24
1535.371639603063
 34
0.0
 50
90.0
100
AcDbRotatedDimension
  0
DIMENSION
  5
E0
330
2
100
AcDbEntity
  8
寸法線
  6
Continuous
100
AcDbDimension
  2
*D4
 10
2187.56639209405
 20
1080.371638603064
 30
0.0
 11
2167.566392094049
 21
1385.371639603064
 31
0.0
 70
    32
 71
     5
 42
-1.0
  3
ISO-25
100
AcDbAlignedDimension
 13
2087.583003492849
 23
1690.371640603063
 33
0.0
 14
2087.583003492849
 24
1080.371638603064
 34
0.0
 50
90.0
100
AcDbRotatedDimension
  0
LINE
  5
ED
330
2
100
AcDbEntity
  8
嵩上断面
  6
Continuous
100
AcDbLine
 10
432.146682186083
 20
626.380821908627
 30
0.0
 11
432.146682186083
 21
561.3808219086271
 31
0.0
  0
LINE
  5
EE
330
2
100
AcDbEntity
  8
嵩上断面
  6
Continuous
100
AcDbLine
 10
1422.146682186083
 20
561.3808219086271
 30
0.0
 11
1422.146682186083
 21
626.380821908627
 31
0.0
  0
LINE
  5
EF
330
2
100
AcDbEntity
  8
嵩上断面
  6
Continuous
100
AcDbLine
 10
1422.146682186083
 20
626.380821908627
 30
0.0
 11
432.146682186083
 21
626.380821908627
 31
0.0
  0
LINE
  5
F0
330
2
100
AcDbEntity
  8
嵩上断面
  6
HIDDEN
 48
2.0
100
AcDbLine
 10
1422.146682186083
 20
624.0808219086267
 30
0.0
 11
432.146682186083
 21
624.0808219086267
 31
0.0
  0
LINE
  5
F2
330
2
100
AcDbEntity
  8
嵩上断面
  6
HIDDEN
 48
2.0
100
AcDbLine
 10
432.146682186083
 20
563.6808219086268
 30
0.0
 11
1422.146682186083
 21
563.6808219086268
 31
0.0
  0
DIMENSION
  5
F7
330
2
100
AcDbEntity
  8
寸法線
  6
Continuous
100
AcDbDimension
  2
*D5
 10
1259.880857786082
 20
738.380821908627
 30
0.0
 11
1330.819944080499
 21
758.380821908627
 31
0.0
 70
    32
  1
12.5
 71
     5
 42
12.53164560000004
  3
ISO-25
100
AcDbAlignedDimension
 13
1247.349212186082
 23
658.4054882922978
 33
0.0
 14
1259.880857786082
 24
658.4054882922978
 34
0.0
100
AcDbRotatedDimension
  0
DIMENSION
  5
106
330
2
100
AcDbEntity
  8
寸法線
  6
Continuous
100
AcDbDimension
  2
*D6
 10
1422.146682186083
 20
481.3808219086269
 30
0.0
 11
927.1466821860832
 21
501.380821908627
 31
0.0
 70
    32
 71
     5
 42
990.0
  3
ISO-25
100
AcDbAlignedDimension
 13
432.146682186083
 23
561.380821908627
 33
0.0
 14
1422.146682186083
 24
561.380821908627
 34
0.0
100
AcDbRotatedDimension
  0
DIMENSION
  5
113
330
2
100
AcDbEntity
  8
寸法線
  6
Continuous
100
AcDbDimension
  2
*D7
 10
1522.029197627396
 20
658.380821908627
 30
0.0
 11
1502.029197627396
 21
710.9696543959369
 31
0.0
 70
    32
 71
     5
 42
-1.0
  3
ISO-25
100
AcDbAlignedDimension
 13
1422.146682186083
 23
626.380821908627
 33
0.0
 14
1421.646680186082
 24
658.380821908627
 34
0.0
 50
90.0
100
AcDbRotatedDimension
  0
DIMENSION
  5
122
330
2
100
AcDbEntity
  8
寸法線
  6
Continuous
100
AcDbDimension
  2
*D8
 10
1622.118658980798
 20
561.380821908627
 30
0.0
 11
1602.118658980798
 21
609.8808219086272
 31
0.0
 70
    32
 71
     5
 42
-1.0
  3
ISO-25
100
AcDbAlignedDimension
 13
1421.646680186082
 23
658.380821908627
 33
0.0
 14
1422.146682186083
 24
561.380821908627
 34
0.0
 50
90.0
100
AcDbRotatedDimension
  0
LEADER
  5
12F
330
2
100
AcDbEntity
  8
寸法線
  6
Continuous
100
AcDbLeader
  3
ISO-25
 73
     0
 74
     0
 75
     1
 40
30.0
 41
171.1675126903553
 76
     3
 10
1424.093506756488
 20
1700.371639603063
 30
0.0
 10
1479.804184875143
 20
1771.582317721718
 30
0.0
 10
1494.804184875143
 20
1771.582317721718
 30
0.0
340
130
1001
ACAD
1000
DSTYLE
1002
{
1070
     5
1000
OPEN30
1070
    77
1070
     1
1070
   147
1040
0.5
1070
   342
1005
C0
1002
}
  0
MTEXT
  5
130
102
{ACAD_REACTORS
330
12F
102
}
330
2
100
AcDbEntity
  8
寸法線
  6
Continuous
100
AcDbMText
 10
1499.804184875143
 20
1776.582317721718
 30
0.0
 40
30.0
 41
0.0
 71
     7
 72
     1
  1
FB4.5\U+00D725
 73
     1
 44
1.0
1001
ACAD
1000
MTEXTBEGIN
1070
    73
1070
     1
1070
    44
1040
1.0
1070
    74
1070
     0
1000
MTEXTEND
  0
LEADER
  5
131
330
2
100
AcDbEntity
  8
寸法線
  6
Continuous
100
AcDbLeader
  3
ISO-25
 73
     0
 74
     0
 75
     1
 40
30.0
 41
230.2538071065989
 76
     3
 10
2060.583003492849
 20
1690.371640603063
 30
0.0
 10
2116.293680611505
 20
1771.082317721718
 30
0.0
 10
2131.293680611505
 20
1771.082317721718
 30
0.0
340
132
1001
ACAD
1000
DSTYLE
1002
{
1070
     5
1000
OPEN30
1070
    77
1070
     1
1070
   147
1040
0.5
1070
   342
1005
C0
1002
}
  0
MTEXT
  5
132
102
{ACAD_REACTORS
330
131
102
}
330
2
100
AcDbEntity
  8
寸法線
  6
Continuous
100
AcDbMText
 10
2136.293680611505
 20
1776.082317721719
 30
0.0
 40
30.0
 41
0.0
 71
     7
 72
     1
  1
P2.3\U+00D765\U+00D740
 73
     1
 44
1.0
1001
ACAD
1000
MTEXTBEGIN
1070
    73
1070
     1
1070
    44
1040
1.0
1070
    74
1070
     0
1000
MTEXTEND
  0
LINE
  5
133
330
2
100
AcDbEntity
  8
中心線
  6
Continuous
100
AcDbLine
 10
1247.349212186082
 20
666.380821908627
 30
0.0
 11
1247.349212186083
 21
618.3808219086269
 31
0.0
  0
LINE
  5
134
330
2
100
AcDbEntity
  8
中心線
  6
Continuous
100
AcDbLine
 10
1259.880857786082
 20
666.380821908627
 30
0.0
 11
1259.880857786083
 21
618.3808219086269
 31
0.0
  0
LINE
  5
139
330
2
100
AcDbEntity
  8
本体
  6
CENTER
 62
     1
 48
0.3
100
AcDbLine
 10
2001.082706492849
 20
1635.371639603063
 30
0.0
 11
1991.083106492849
 21
1635.371639603063
 31
0.0
  0
LINE
  5
13B
330
2
100
AcDbEntity
  8
本体
  6
CENTER
 62
     1
 48
0.3
100
AcDbLine
 10
1996.082906492849
 20
1640.371439603063
 30
0.0
 11
1996.082906492849
 21
1630.371839603063
 31
0.0
  0
CIRCLE
  5
13C
330
2
100
AcDbEntity
  8
本体
  6
Continuous
 62
     0
100
AcDbCircle
 10
1996.082906492849
 20
1635.371639603063
 30
0.0
 40
2.4999
  0
DIMENSION
  5
277
330
2
100
AcDbEntity
  8
寸法線
  6
Continuous
100
AcDbDimension
  2
*D9
 10
429.6466821860831
 20
818.3808219086269
 30
0.0
 11
927.1466811860827
 21
838.3808219086271
 31
0.0
 70
    32
 71
     5
 42
994.9999979999994
  3
ISO-25
100
AcDbAlignedDimension
 13
1424.646680186082
 23
651.380821908627
 33
0.0
 14
429.6466821860831
 24
651.380821908627
 34
0.0
100
AcDbRotatedDimension
  0
LINE
  5
284
330
2
100
AcDbEntity
  8
本体
  6
Continuous
100
AcDbLine
 10
429.6466821860831
 20
1432.871639603063
 30
0.0
 11
1424.646682186083
 21
1432.871639603063
 31
0.0
  0
LINE
  5
285
330
2
100
AcDbEntity
  8
本体
  6
Continuous
100
AcDbLine
 10
429.6466821860831
 20
1437.871639603063
 30
0.0
 11
1424.646682186083
 21
1437.871639603063
 31
0.0
  0
LINE
  5
328
330
2
100
AcDbEntity
  8
本体
  6
Continuous
100
AcDbLine
 10
429.6466821860831
 20
1332.871639603063
 30
0.0
 11
1424.646682186083
 21
1332.871639603063
 31
0.0
  0
LINE
  5
329
330
2
100
AcDbEntity
  8
本体
  6
Continuous
100
AcDbLine
 10
429.6466821860831
 20
1337.871639603063
 30
0.0
 11
1424.646682186083
 21
1337.871639603063
 31
0.0
  0
LINE
  5
3CC
330
2
100
AcDbEntity
  8
本体
  6
Continuous
100
AcDbLine
 10
429.6466821860831
 20
1070.371639603063
 30
0.0
 11
1424.646682186083
 21
1070.371639603063
 31
0.0
  0
LINE
  5
3CD
330
2
100
AcDbEntity
  8
本体
  6
Continuous
100
AcDbLine
 10
429.6466821860831
 20
1074.871639603063
 30
0.0
 11
1424.646682186083
 21
1074.871639603063
 31
0.0
  0
LINE
  5
470
330
2
100
AcDbEntity
  8
本体
  6
CENTER
 62
     1
 48
0.3
100
AcDbLine
 10
2001.082706492849
 20
1535.371639603063
 30
0.0
 11
1991.083106492849
 21
1535.371639603063
 31
0.0
  0
LINE
  5
471
330
2
100
AcDbEntity
  8
本体
  6
CENTER
 62
     1
 48
0.3
100
AcDbLine
 10
1996.082906492849
 20
1540.371439603063
 30
0.0
 11
1996.082906492849
 21
1530.371839603063
 31
0.0
  0
CIRCLE
  5
472
330
2
100
AcDbEntity
  8
本体
  6
Continuous
 62
     0
100
AcDbCircle
 10
1996.082906492849
 20
1535.371639603063
 30
0.0
 40
2.4999
  0
LINE
  5
473
330
2
100
AcDbEntity
  8
本体
  6
CENTER
 62
     1
 48
0.3
100
AcDbLine
 10
2001.082706492849
 20
1435.371639603063
 30
0.0
 11
1991.083106492849
 21
1435.371639603063
 31
0.0
  0
LINE
  5
474
330
2
100
AcDbEntity
  8
本体
  6
CENTER
 62
     1
 48
0.3
100
AcDbLine
 10
1996.082906492849
 20
1440.371439603063
 30
0.0
 11
1996.082906492849
 21
1430.371839603063
 31
0.0
  0
CIRCLE
  5
475
330
2
100
AcDbEntity
  8
本体
  6
Continuous
 62
     0
100
AcDbCircle
 10
1996.082906492849
 20
1435.371639603063
 30
0.0
 40
2.4999
  0
LINE
  5
476
330
2
100
AcDbEntity
  8
本体
  6
CENTER
 62
     1
 48
0.3
100
AcDbLine
 10
2001.082706492849
 20
1335.371639603063
 30
0.0
 11
1991.083106492849
 21
1335.371639603063
 31
0.0
  0
LINE
  5
477
330
2
100
AcDbEntity
  8
本体
  6
CENTER
 62
     1
 48
0.3
100
AcDbLine
 10
1996.082906492849
 20
1340.371439603063
 30
0.0
 11
1996.082906492849
 21
1330.371839603063
 31
0.0
  0
CIRCLE
  5
478
330
2
100
AcDbEntity
  8
本体
  6
Continuous
 62
     0
100
AcDbCircle
 10
1996.082906492849
 20
1335.371639603063
 30
0.0
 40
2.4999
  0
LINE
  5
479
330
2
100
AcDbEntity
  8
本体
  6
Continuous
100
AcDbLine
 10
429.6466821860831
 20
1237.871639603063
 30
0.0
 11
1424.646682186083
 21
1237.871639603063
 31
0.0
  0
LINE
  5
47A
330
2
100
AcDbEntity
  8
本体
  6
Continuous
100
AcDbLine
 10
429.6466821860831
 20
1232.871639603063
 30
0.0
 11
1424.646682186083
 21
1232.871639603063
 31
0.0
  0
CIRCLE
  5
51D
330
2
100
AcDbEntity
  8
本体
  6
Continuous
 62
     0
100
AcDbCircle
 10
1996.082906492849
 20
1235.371639603063
 30
0.0
 40
2.4999
  0
LINE
  5
51E
330
2
100
AcDbEntity
  8
本体
  6
CENTER
 62
     1
 48
0.3
100
AcDbLine
 10
1996.082906492849
 20
1240.371439603063
 30
0.0
 11
1996.082906492849
 21
1230.371839603063
 31
0.0
  0
LINE
  5
51F
330
2
100
AcDbEntity
  8
本体
  6
CENTER
 62
     1
 48
0.3
100
AcDbLine
 10
2001.082706492849
 20
1235.371639603063
 30
0.0
 11
1991.083106492849
 21
1235.371639603063
 31
0.0
  0
LWPOLYLINE
  5
520
330
2
100
AcDbEntity
  8
本体
  6
Continuous
100
AcDbPolyline
 90
        4
 70
     1
 43
0.0
 10
429.6466821860831
 20
658.380821908627
 10
432.6466821860831
 20
658.380821908627
 10
432.6466821860831
 20
626.380821908627
 10
429.6466821860831
 20
626.380821908627
  0
LINE
  5
609
330
2
100
AcDbEntity
  8
本体
  6
Continuous
100
AcDbLine
 10
1412.089718186083
 20
653.380821908627
 30
0.0
 11
1421.646680186082
 21
653.380821908627
 31
0.0
  0
LINE
  5
60A
330
2
100
AcDbEntity
  8
本体
  6
Continuous
100
AcDbLine
 10
1412.089718186083
 20
658.380821908627
 30
0.0
 11
1421.646680186082
 21
658.380821908627
 31
0.0
  0
LWPOLYLINE
  5
60B
330
2
100
AcDbEntity
  8
本体
  6
Continuous
100
AcDbPolyline
 90
        4
 70
     1
 43
0.0
 10
1421.646680186082
 20
658.380821908627
 10
1424.646680186082
 20
658.380821908627
 10
1424.646680186082
 20
626.380821908627
 10
1421.646680186082
 20
626.380821908627
  0
LINE
  5
60C
330
2
100
AcDbEntity
  8
本体
  6
Continuous
100
AcDbLine
 10
429.6466821860831
 20
1132.871639603063
 30
0.0
 11
1424.646682186083
 21
1132.871639603063
 31
0.0
  0
LINE
  5
60D
330
2
100
AcDbEntity
  8
本体
  6
Continuous
100
AcDbLine
 10
429.6466821860831
 20
1137.871639603063
 30
0.0
 11
1424.646682186083
 21
1137.871639603063
 31
0.0
  0
LINE
  5
6B0
330
2
100
AcDbEntity
  8
本体
  6
CENTER
 62
     1
 48
0.3
100
AcDbLine
 10
1996.082906492849
 20
1140.371439603063
 30
0.0
 11
1996.082906492849
 21
1130.371839603063
 31
0.0
  0
CIRCLE
  5
6B1
330
2
100
AcDbEntity
  8
本体
  6
Continuous
 62
     0
100
AcDbCircle
 10
1996.082906492849
 20
1135.371639603063
 30
0.0
 40
2.4999
  0
LINE
  5
6B2
330
2
100
AcDbEntity
  8
本体
  6
CENTER
 62
     1
 48
0.3
100
AcDbLine
 10
2001.082706492849
 20
1135.371639603063
 30
0.0
 11
1991.083106492849
 21
1135.371639603063
 31
0.0
  0
LINE
  5
6B4
330
2
100
AcDbEntity
  8
嵩上断面
  6
Continuous
100
AcDbLine
 10
432.146682186083
 20
561.380821908627
 30
0.0
 11
1422.146682186083
 21
561.380821908627
 31
0.0
  0
LINE
  5
7CA
330
2
100
AcDbEntity
  8
本体
  6
Continuous
100
AcDbLine
 10
1412.089718186083
 20
653.380821908627
 30
0.0
 11
1421.646680186082
 21
658.380821908627
 31
0.0
  0
DIMENSION
  5
1F8C
330
2
100
AcDbEntity
  8
寸法線
 48
3.0
100
AcDbDimension
  2
*D10
 10
1522.029197627396
 20
626.380821908627
 30
0.0
 11
1502.029197627396
 21
593.8808219086272
 31
0.0
 70
    32
 71
     5
 42
-1.0
  3
ISO-25
100
AcDbAlignedDimension
 13
1422.146682186083
 23
561.380821908627
 33
0.0
 14
1424.646680186082
 24
626.380821908627
 34
0.0
 50
90.0
100
AcDbRotatedDimension
  0
LINE
  5
1FFA
330
2
100
AcDbEntity
  8
嵩上平面
  6
HIDDEN
 48
3.0
370
     9
100
AcDbLine
 10
432.146682186083
 20
1690.371640603063
 30
0.0
 11
1422.146682186083
 21
1690.371640603063
 31
0.0
  0
LINE
  5
1FFB
330
2
100
AcDbEntity
  8
嵩上平面
  6
HIDDEN
 48
3.0
370
     9
100
AcDbLine
 10
432.146682186083
 20
1650.371640603063
 30
0.0
 11
1422.146682186083
 21
1650.371640603063
 31
0.0
  0
LINE
  5
1FFC
330
2
100
AcDbEntity
  8
嵩上平面
  6
HIDDEN
 48
3.0
370
     9
100
AcDbLine
 10
432.1466821860829
 20
1120.371638603063
 30
0.0
 11
1422.146682186083
 21
1120.371638603063
 31
0.0
  0
LINE
  5
1FFD
330
2
100
AcDbEntity
  8
嵩上平面
  6
HIDDEN
 48
3.0
370
     9
100
AcDbLine
 10
432.146682186083
 20
1080.371638603064
 30
0.0
 11
1422.146682186083
 21
1080.371638603064
 31
0.0
  0
LINE
  5
1FFE
330
2
100
AcDbEntity
  8
嵩上平面
  6
HIDDEN
 48
3.0
370
     9
100
AcDbLine
 10
1422.146682186083
 20
1690.371640603063
 30
0.0
 11
1422.146682186083
 21
1650.371640603063
 31
0.0
  0
LINE
  5
1FFF
330
2
100
AcDbEntity
  8
嵩上平面
  6
HIDDEN
 48
3.0
370
     9
100
AcDbLine
 10
432.146682186083
 20
1080.371638603064
 30
0.0
 11
432.146682186083
 21
1120.371638603063
 31
0.0
  0
LINE
  5
2000
330
2
100
AcDbEntity
  8
嵩上平面
  6
HIDDEN
 48
3.0
370
     9
100
AcDbLine
 10
1422.146682186083
 20
1120.371638603063
 30
0.0
 11
1422.146682186083
 21
1080.371638603064
 31
0.0
  0
LINE
  5
2001
330
2
100
AcDbEntity
  8
嵩上平面
  6
HIDDEN
 48
3.0
370
     9
100
AcDbLine
 10
432.146682186083
 20
1650.371640603063
 30
0.0
 11
432.146682186083
 21
1690.371640603063
 31
0.0
  0
MTEXT
  5
2186
330
2
100
AcDbEntity
  8
外枠
  6
Continuous
 48
100.0
370
     9
100
AcDbMText
 10
1038.975343934131
 20
43.7816999552906
 30
0.0
 40
25.0
 41
122.0406
 71
     1
 72
     5
  1
SS400
 73
     1
 44
1.0
1001
ACAD
1000
MTEXTBEGIN
1070
    73
1070
     1
1070
    44
1040
1.0
1070
    74
1070
     0
1000
MTEXTEND
  0
MTEXT
  5
2187
330
2
100
AcDbEntity
  8
外枠
  6
Continuous
 48
100.0
370
     9
100
AcDbMText
 10
1202.677957061338
 20
120.1377642323778
 30
0.0
 40
25.0
 41
1015.1375
 71
     1
 72
     5
  1
溶融亜鉛めっき仕上
 73
     1
 44
1.0
1001
ACAD
1000
MTEXTBEGIN
1070
    73
1070
     1
1070
    44
1040
1.0
1070
    74
1070
     0
1000
MTEXTEND
  0
MTEXT
  5
2189
330
2
100
AcDbEntity
  8
外枠
  6
Continuous
 48
100.0
370
     9
100
AcDbMText
 10
1159.385398923399
 20
148.6111115828462
 30
0.0
 40
20.0
 41
1015.1375
 71
     1
 72
     5
  1
表\P面\P処\P理
 73
     1
 44
1.0
1001
ACAD
1000
MTEXTBEGIN
1070
    73
1070
     1
1070
    44
1040
1.0
1070
    74
1070
     0
1000
MTEXTEND
  0
LINE
  5
218A
330
2
100
AcDbEntity
  8
外枠
  6
Continuous
 48
100.0
370
     9
100
AcDbLine
 10
1188.531791166651
 20
155.3992728207959
 30
0.0
 11
1188.531791166651
 21
9.999999999992724
 31
0.0
  0
LINE
  5
218B
330
2
100
AcDbEntity
  8
外枠
  6
Continuous
 48
100.0
370
     9
100
AcDbLine
 10
1153.531306970095
 20
155.3992728207959
 30
0.0
 11
1153.531306970095
 21
9.999999999992724
 31
0.0
  0
LINE
  5
218C
330
2
100
AcDbEntity
  8
外枠
 48
3.0
100
AcDbLine
 10
1188.531791166651
 20
82.6996364103943
 30
0.0
 11
1593.951336296073
 21
82.6996364103943
 31
0.0
  0
LINE
  5
21E1
330
2
100
AcDbEntity
  8
本体
  6
Continuous
100
AcDbLine
 10
1412.089718186083
 20
633.380821908627
 30
0.0
 11
1421.646680186082
 21
633.380821908627
 31
0.0
  0
INSERT
  5
2361
330
2
100
AcDbEntity
  8
嵩上断面
 48
3.0
100
AcDbBlockReference
  2
P-H65
 10
2025.583006492849
 20
1690.371640603063
 30
0.0
  0
INSERT
  5
2362
330
2
100
AcDbEntity
  8
嵩上断面
 48
3.0
100
AcDbBlockReference
  2
P-H65
 10
2025.583006492849
 20
1080.371638603064
 30
0.0
 41
-1.0
 50
180.0
  0
MTEXT
  5
23C0
330
2
100
AcDbEntity
  8
外枠
  6
Continuous
100
AcDbMText
 10
2427.938927859905
 20
67.25039165302224
 30
0.0
 40
28.17460800000001
 41
43.8527
 71
     1
 72
     5
  1
{\fHG正楷書体-PRO|b0|i0|c128|p65;水}
 73
     1
 44
1.0
1001
ACAD
1000
MTEXTBEGIN
1070
    73
1070
     1
1070
    44
1040
1.0
1070
    74
1070
     0
1000
MTEXTEND
  0
MTEXT
  5
23C1
330
2
100
AcDbEntity
  8
外枠
  6
Continuous
100
AcDbMText
 10
2427.938927859905
 20
109.7804165221496
 30
0.0
 40
28.17460800000001
 41
43.8527
 71
     1
 72
     5
  1
{\fHG正楷書体-PRO|b0|i0|c128|p65;清}
 73
     1
 44
1.0
1001
ACAD
1000
MTEXTBEGIN
1070
    73
1070
     1
1070
    44
1040
1.0
1070
    74
1070
     0
1000
MTEXTEND
  0
ELLIPSE
  5
23C2
330
2
100
AcDbEntity
  8
外枠
  6
Continuous
100
AcDbEllipse
 10
2449.066278910865
 20
70.80064248893541
 30
0.0
 11
0.0
 21
-47.8594442149426
 31
0.0
210
0.0
220
0.0
230
1.0
 40
0.7999999999999857
 41
0.0
 42
6.283185307179586
  0
MTEXT
  5
2499
330
2
100
AcDbEntity
  8
外枠
  6
Continuous
 48
100.0
370
     9
100
AcDbMText
 10
2509.985545378613
 20
121.2206105686568
 30
0.0
 40
23.47884
 41
274.1381
 71
     1
 72
     5
  1
'14・09・01
 73
     1
 44
1.0
1001
ACAD
1000
MTEXTBEGIN
1070
    73
1070
     1
1070
    44
1040
1.0
1070
    74
1070
     0
1000
MTEXTEND
  0
INSERT
  5
249A
330
2
100
AcDbEntity
  8
外枠
 48
3.0
100
AcDbBlockReference
  2
鎌下
 10
2271.730765417811
 20
155.3992728207995
 30
0.0
  0
MTEXT
  5
2559
330
2
100
AcDbEntity
  8
外枠
  6
Continuous
 48
100.0
370
     9
100
AcDbMText
 10
515.491367540806
 20
136.1535564242144
 30
0.0
 40
29.0
 41
664.6118999999999
 71
     1
 72
     5
  1
細目国土交通省タイプ用グレーチング
 73
     1
 44
1.0
1001
ACAD
1000
MTEXTBEGIN
1070
    73
1070
     1
1070
    44
1040
1.0
1070
    74
1070
     0
1000
MTEXTEND
  0
MTEXT
  5
255A
330
2
100
AcDbEntity
  8
外枠
  6
Continuous
 48
100.0
370
     9
100
AcDbMText
 10
1022.191987836151
 20
77.61017986570369
 30
0.0
 40
18.0
 41
122.0406
 71
     1
 72
     5
  1
【主部材】
 73
     1
 44
1.0
1001
ACAD
1000
MTEXTBEGIN
1070
    73
1070
     1
1070
    44
1040
1.0
1070
    74
1070
     0
1000
MTEXTEND
  0
MTEXT
  5
255B
330
2
100
AcDbEntity
  8
外枠
  6
Continuous
 48
100.0
370
     9
100
AcDbMText
 10
1199.760540349536
 20
151.081987935065
 30
0.0
 40
18.0
 41
301.8661
 71
     1
 72
     5
  1
【グレーチング】JIS　H8641
 73
     1
 44
1.0
1001
ACAD
1000
MTEXTBEGIN
1070
    73
1070
     1
1070
    44
1040
1.0
1070
    74
1070
     0
1000
MTEXTEND
  0
INSERT
  5
25B7
330
2
100
AcDbEntity
  8
本体
 48
3.0
100
AcDbBlockReference
  2
GFB新
 10
2774.219625023061
 20
166.6250408207972
 30
0.0
  0
LEADER
  5
25B8
330
2
100
AcDbEntity
  8
寸法線
  6
Continuous
100
AcDbLeader
  3
ISO-25
 73
     0
 74
     0
 75
     1
 40
30.0
 41
152.2842639593908
 76
     3
 10
1424.093506756488
 20
1557.359286981412
 30
0.0
 10
1479.804184875143
 20
1628.569965100067
 30
0.0
 10
1494.804184875143
 20
1628.569965100067
 30
0.0
340
25B9
1001
ACAD
1000
DSTYLE
1002
{
1070
     5
1000
OPEN30
1070
    77
1070
     1
1070
   147
1040
0.5
1070
   342
1005
C0
1002
}
  0
MTEXT
  5
25B9
102
{ACAD_REACTORS
330
25B8
102
}
330
2
100
AcDbEntity
  8
寸法線
  6
Continuous
100
AcDbMText
 10
1499.804184875143
 20
1633.569965100067
 30
0.0
 40
30.0
 41
0.0
 71
     7
 72
     1
  1
GFB3\U+00D732
 73
     1
 44
1.0
1001
ACAD
1000
MTEXTBEGIN
1070
    73
1070
     1
1070
    44
1040
1.0
1070
    74
1070
     0
1000
MTEXTEND
  0
LEADER
  5
25BA
330
2
100
AcDbEntity
  8
寸法線
  6
Continuous
100
AcDbLeader
  3
ISO-25
 73
     0
 74
     0
 75
     1
 40
30.0
 41
35.78680203045685
 76
     3
 10
1424.093506756488
 20
1434.485106940096
 30
0.0
 10
1479.804184875143
 20
1505.695785058751
 30
0.0
 10
1494.804184875143
 20
1505.695785058751
 30
0.0
340
25BB
1001
ACAD
1000
DSTYLE
1002
{
1070
     5
1000
OPEN30
1070
    77
1070
     1
1070
   147
1040
0.5
1070
   342
1005
C0
1002
}
  0
MTEXT
  5
25BB
102
{ACAD_REACTORS
330
25BA
102
}
330
2
100
AcDbEntity
  8
寸法線
  6
Continuous
100
AcDbMText
 10
1499.804184875143
 20
1510.695785058751
 30
0.0
 40
30.0
 41
0.0
 71
     7
 72
     1
  1
TB
 73
     1
 44
1.0
1001
ACAD
1000
MTEXTBEGIN
1070
    73
1070
     1
1070
    44
1040
1.0
1070
    74
1070
     0
1000
MTEXTEND
  0
INSERT
  5
25C9
102
{ACAD_REACTORS
330
25DA
102
}
330
2
100
AcDbEntity
  8
本体
100
AcDbBlockReference
  2
*U15
 10
445.2066821860831
 20
658.380821908627
 30
0.0
  0
LINE
  5
2631
330
2
100
AcDbEntity
  8
本体
 48
3.0
100
AcDbLine
 10
1424.646682186083
 20
1070.371639603063
 30
0.0
 11
1424.646682186083
 21
1700.371639603063
 31
0.0
  0
LINE
  5
2632
330
2
100
AcDbEntity
  8
本体
  6
Continuous
100
AcDbLine
 10
1424.646682186083
 20
1695.871639603063
 30
0.0
 11
1424.646682186083
 21
1637.871639603063
 31
0.0
  0
LINE
  5
2633
330
2
100
AcDbEntity
  8
本体
  6
Continuous
100
AcDbLine
 10
1421.646682186083
 20
1695.871639603063
 30
0.0
 11
1421.646682186083
 21
1637.871639603063
 31
0.0
  0
LINE
  5
2634
330
2
100
AcDbEntity
  8
本体
  6
Continuous
100
AcDbLine
 10
1424.646682186083
 20
1632.871639603063
 30
0.0
 11
1424.646682186083
 21
1537.871639603063
 31
0.0
  0
LINE
  5
2635
330
2
100
AcDbEntity
  8
本体
  6
Continuous
100
AcDbLine
 10
1421.646682186083
 20
1632.871639603063
 30
0.0
 11
1421.646682186083
 21
1537.871639603063
 31
0.0
  0
LINE
  5
2636
330
2
100
AcDbEntity
  8
本体
  6
Continuous
100
AcDbLine
 10
1421.646682186083
 20
1532.871639603063
 30
0.0
 11
1421.646682186083
 21
1437.871639603063
 31
0.0
  0
LINE
  5
2637
330
2
100
AcDbEntity
  8
本体
  6
Continuous
100
AcDbLine
 10
1424.646682186083
 20
1532.871639603063
 30
0.0
 11
1424.646682186083
 21
1437.871639603063
 31
0.0
  0
LINE
  5
2638
330
2
100
AcDbEntity
  8
本体
  6
Continuous
100
AcDbLine
 10
1421.646682186083
 20
1432.871639603063
 30
0.0
 11
1421.646682186083
 21
1337.871639603063
 31
0.0
  0
LINE
  5
2639
330
2
100
AcDbEntity
  8
本体
  6
Continuous
100
AcDbLine
 10
1424.646682186083
 20
1432.871639603063
 30
0.0
 11
1424.646682186083
 21
1337.871639603063
 31
0.0
  0
LINE
  5
263A
330
2
100
AcDbEntity
  8
本体
  6
Continuous
100
AcDbLine
 10
1424.646682186083
 20
1074.871639603063
 30
0.0
 11
1424.646682186083
 21
1132.871639603063
 31
0.0
  0
LINE
  5
263B
330
2
100
AcDbEntity
  8
本体
  6
Continuous
100
AcDbLine
 10
1421.646682186083
 20
1074.871639603063
 30
0.0
 11
1421.646682186083
 21
1132.871639603063
 31
0.0
  0
LINE
  5
263C
330
2
100
AcDbEntity
  8
本体
  6
Continuous
100
AcDbLine
 10
1424.646682186083
 20
1332.871639603063
 30
0.0
 11
1424.646682186083
 21
1237.871639603063
 31
0.0
  0
LINE
  5
263D
330
2
100
AcDbEntity
  8
本体
  6
Continuous
100
AcDbLine
 10
1421.646682186083
 20
1332.871639603063
 30
0.0
 11
1421.646682186083
 21
1237.871639603063
 31
0.0
  0
LINE
  5
263E
330
2
100
AcDbEntity
  8
本体
  6
Continuous
100
AcDbLine
 10
1421.646682186083
 20
1232.871639603063
 30
0.0
 11
1421.646682186083
 21
1137.871639603063
 31
0.0
  0
LINE
  5
263F
330
2
100
AcDbEntity
  8
本体
  6
Continuous
100
AcDbLine
 10
1424.646682186083
 20
1232.871639603063
 30
0.0
 11
1424.646682186083
 21
1137.871639603063
 31
0.0
  0
LINE
  5
2640
330
2
100
AcDbEntity
  8
本体
  6
Continuous
100
AcDbLine
 10
1409.089720186083
 20
1632.871639603063
 30
0.0
 11
1421.646682186083
 21
1637.871639603063
 31
0.0
  0
LINE
  5
2641
330
2
100
AcDbEntity
  8
本体
  6
Continuous
100
AcDbLine
 10
1409.089720186083
 20
1532.871639603063
 30
0.0
 11
1421.646682186083
 21
1537.871639603063
 31
0.0
  0
LINE
  5
2642
330
2
100
AcDbEntity
  8
本体
  6
Continuous
100
AcDbLine
 10
1409.089720186083
 20
1432.871639603063
 30
0.0
 11
1421.646682186083
 21
1437.871639603063
 31
0.0
  0
LINE
  5
2643
330
2
100
AcDbEntity
  8
本体
  6
Continuous
100
AcDbLine
 10
1409.089720186083
 20
1332.871639603063
 30
0.0
 11
1421.646682186083
 21
1337.871639603063
 31
0.0
  0
LINE
  5
2644
330
2
100
AcDbEntity
  8
本体
  6
Continuous
100
AcDbLine
 10
1409.089720186083
 20
1232.871639603063
 30
0.0
 11
1421.646682186083
 21
1237.871639603063
 31
0.0
  0
LINE
  5
2645
330
2
100
AcDbEntity
  8
本体
  6
Continuous
100
AcDbLine
 10
1409.089720186083
 20
1132.871639603063
 30
0.0
 11
1421.646682186083
 21
1137.871639603063
 31
0.0
  0
LINE
  5
2646
330
2
100
AcDbEntity
  8
エンボス
  6
Continuous
100
AcDbLine
 10
1421.646682216083
 20
1663.571639603063
 30
0.0
 11
1424.646682216083
 21
1662.371639603063
 31
0.0
  0
LINE
  5
2647
330
2
100
AcDbEntity
  8
エンボス
  6
Continuous
100
AcDbLine
 10
1424.646682216083
 20
1657.771639603063
 30
0.0
 11
1421.646682216083
 21
1656.571639603063
 31
0.0
  0
LINE
  5
2648
330
2
100
AcDbEntity
  8
エンボス
  6
Continuous
100
AcDbLine
 10
1424.646682216083
 20
1643.371639603063
 30
0.0
 11
1421.646682216083
 21
1644.571639603063
 31
0.0
  0
LINE
  5
2649
330
2
100
AcDbEntity
  8
エンボス
  6
Continuous
100
AcDbLine
 10
1421.646682216083
 20
1647.571639603063
 30
0.0
 11
1424.646682216083
 21
1648.771639603063
 31
0.0
  0
LINE
  5
264A
330
2
100
AcDbEntity
  8
エンボス
  6
Continuous
100
AcDbLine
 10
1424.646682216083
 20
1671.371639603063
 30
0.0
 11
1421.646682216083
 21
1672.571639603063
 31
0.0
  0
LINE
  5
264B
330
2
100
AcDbEntity
  8
エンボス
  6
Continuous
100
AcDbLine
 10
1421.646682216083
 20
1675.571639603063
 30
0.0
 11
1424.646682216083
 21
1676.771639603063
 31
0.0
  0
LINE
  5
264C
330
2
100
AcDbEntity
  8
エンボス
  6
Continuous
100
AcDbLine
 10
1424.646682216083
 20
1685.771639603063
 30
0.0
 11
1421.646682216083
 21
1684.571639603063
 31
0.0
  0
LINE
  5
264D
330
2
100
AcDbEntity
  8
エンボス
  6
Continuous
100
AcDbLine
 10
1421.646682216083
 20
1691.571639603063
 30
0.0
 11
1424.646682216083
 21
1690.371639603063
 31
0.0
  0
LINE
  5
264E
330
2
100
AcDbEntity
  8
エンボス
  6
Continuous
100
AcDbLine
 10
1424.646682216083
 20
1548.271639603063
 30
0.0
 11
1421.646682216083
 21
1547.071639603063
 31
0.0
  0
LINE
  5
264F
330
2
100
AcDbEntity
  8
エンボス
  6
Continuous
100
AcDbLine
 10
1421.646682216083
 20
1554.071639603063
 30
0.0
 11
1424.646682216083
 21
1552.871639603063
 31
0.0
  0
LINE
  5
2650
330
2
100
AcDbEntity
  8
エンボス
  6
Continuous
100
AcDbLine
 10
1421.646682216083
 20
1582.071639603063
 30
0.0
 11
1424.646682216083
 21
1580.871639603063
 31
0.0
  0
LINE
  5
2651
330
2
100
AcDbEntity
  8
エンボス
  6
Continuous
100
AcDbLine
 10
1424.646682216083
 20
1576.271639603063
 30
0.0
 11
1421.646682216083
 21
1575.071639603063
 31
0.0
  0
LINE
  5
2652
330
2
100
AcDbEntity
  8
エンボス
  6
Continuous
100
AcDbLine
 10
1424.646682216083
 20
1589.871639603063
 30
0.0
 11
1421.646682216083
 21
1591.071639603063
 31
0.0
  0
LINE
  5
2653
330
2
100
AcDbEntity
  8
エンボス
  6
Continuous
100
AcDbLine
 10
1421.646682216083
 20
1594.071639603063
 30
0.0
 11
1424.646682216083
 21
1595.271639603063
 31
0.0
  0
LINE
  5
2654
330
2
100
AcDbEntity
  8
エンボス
  6
Continuous
100
AcDbLine
 10
1424.646682216083
 20
1561.871639603063
 30
0.0
 11
1421.646682216083
 21
1563.071639603063
 31
0.0
  0
LINE
  5
2655
330
2
100
AcDbEntity
  8
エンボス
  6
Continuous
100
AcDbLine
 10
1421.646682216083
 20
1566.071639603063
 30
0.0
 11
1424.646682216083
 21
1567.271639603063
 31
0.0
  0
LINE
  5
2656
330
2
100
AcDbEntity
  8
エンボス
  6
Continuous
100
AcDbLine
 10
1424.646682216083
 20
1617.871639603063
 30
0.0
 11
1421.646682216083
 21
1619.071639603063
 31
0.0
  0
LINE
  5
2657
330
2
100
AcDbEntity
  8
エンボス
  6
Continuous
100
AcDbLine
 10
1421.646682216083
 20
1622.071639603063
 30
0.0
 11
1424.646682216083
 21
1623.271639603063
 31
0.0
  0
LINE
  5
2658
330
2
100
AcDbEntity
  8
エンボス
  6
Continuous
100
AcDbLine
 10
1424.646682216083
 20
1604.271639603063
 30
0.0
 11
1421.646682216083
 21
1603.071639603063
 31
0.0
  0
LINE
  5
2659
330
2
100
AcDbEntity
  8
エンボス
  6
Continuous
100
AcDbLine
 10
1421.646682216083
 20
1610.071639603063
 30
0.0
 11
1424.646682216083
 21
1608.871639603063
 31
0.0
  0
LINE
  5
265A
330
2
100
AcDbEntity
  8
エンボス
  6
Continuous
100
AcDbLine
 10
1421.646682216083
 20
1466.071639603063
 30
0.0
 11
1424.646682216083
 21
1467.271639603063
 31
0.0
  0
LINE
  5
265B
330
2
100
AcDbEntity
  8
エンボス
  6
Continuous
100
AcDbLine
 10
1424.646682216083
 20
1461.871639603063
 30
0.0
 11
1421.646682216083
 21
1463.071639603063
 31
0.0
  0
LINE
  5
265C
330
2
100
AcDbEntity
  8
エンボス
  6
Continuous
100
AcDbLine
 10
1424.646682216083
 20
1476.271639603063
 30
0.0
 11
1421.646682216083
 21
1475.071639603063
 31
0.0
  0
LINE
  5
265D
330
2
100
AcDbEntity
  8
エンボス
  6
Continuous
100
AcDbLine
 10
1421.646682216083
 20
1482.071639603063
 30
0.0
 11
1424.646682216083
 21
1480.871639603063
 31
0.0
  0
LINE
  5
265E
330
2
100
AcDbEntity
  8
エンボス
  6
Continuous
100
AcDbLine
 10
1421.646682216083
 20
1454.071639603063
 30
0.0
 11
1424.646682216083
 21
1452.871639603063
 31
0.0
  0
LINE
  5
265F
330
2
100
AcDbEntity
  8
エンボス
  6
Continuous
100
AcDbLine
 10
1424.646682216083
 20
1448.271639603063
 30
0.0
 11
1421.646682216083
 21
1447.071639603063
 31
0.0
  0
LINE
  5
2660
330
2
100
AcDbEntity
  8
エンボス
  6
Continuous
100
AcDbLine
 10
1421.646682216083
 20
1510.071639603063
 30
0.0
 11
1424.646682216083
 21
1508.871639603063
 31
0.0
  0
LINE
  5
2661
330
2
100
AcDbEntity
  8
エンボス
  6
Continuous
100
AcDbLine
 10
1424.646682216083
 20
1504.271639603063
 30
0.0
 11
1421.646682216083
 21
1503.071639603063
 31
0.0
  0
LINE
  5
2662
330
2
100
AcDbEntity
  8
エンボス
  6
Continuous
100
AcDbLine
 10
1424.646682216083
 20
1517.871639603063
 30
0.0
 11
1421.646682216083
 21
1519.071639603063
 31
0.0
  0
LINE
  5
2663
330
2
100
AcDbEntity
  8
エンボス
  6
Continuous
100
AcDbLine
 10
1421.646682216083
 20
1494.071639603063
 30
0.0
 11
1424.646682216083
 21
1495.271639603063
 31
0.0
  0
LINE
  5
2664
330
2
100
AcDbEntity
  8
エンボス
  6
Continuous
100
AcDbLine
 10
1424.646682216083
 20
1489.871639603063
 30
0.0
 11
1421.646682216083
 21
1491.071639603063
 31
0.0
  0
LINE
  5
2665
330
2
100
AcDbEntity
  8
エンボス
  6
Continuous
100
AcDbLine
 10
1421.646682216083
 20
1522.071639603063
 30
0.0
 11
1424.646682216083
 21
1523.271639603063
 31
0.0
  0
LINE
  5
2666
330
2
100
AcDbEntity
  8
エンボス
  6
Continuous
100
AcDbLine
 10
1421.646682216083
 20
1366.071639603063
 30
0.0
 11
1424.646682216083
 21
1367.271639603063
 31
0.0
  0
LINE
  5
2667
330
2
100
AcDbEntity
  8
エンボス
  6
Continuous
100
AcDbLine
 10
1424.646682216083
 20
1361.871639603063
 30
0.0
 11
1421.646682216083
 21
1363.071639603063
 31
0.0
  0
LINE
  5
2668
330
2
100
AcDbEntity
  8
エンボス
  6
Continuous
100
AcDbLine
 10
1421.646682216083
 20
1354.071639603063
 30
0.0
 11
1424.646682216083
 21
1352.871639603063
 31
0.0
  0
LINE
  5
2669
330
2
100
AcDbEntity
  8
エンボス
  6
Continuous
100
AcDbLine
 10
1424.646682216083
 20
1348.271639603063
 30
0.0
 11
1421.646682216083
 21
1347.071639603063
 31
0.0
  0
LINE
  5
266A
330
2
100
AcDbEntity
  8
エンボス
  6
Continuous
100
AcDbLine
 10
1421.646682216083
 20
1410.071639603063
 30
0.0
 11
1424.646682216083
 21
1408.871639603063
 31
0.0
  0
LINE
  5
266B
330
2
100
AcDbEntity
  8
エンボス
  6
Continuous
100
AcDbLine
 10
1424.646682216083
 20
1404.271639603063
 30
0.0
 11
1421.646682216083
 21
1403.071639603063
 31
0.0
  0
LINE
  5
266C
330
2
100
AcDbEntity
  8
エンボス
  6
Continuous
100
AcDbLine
 10
1421.646682216083
 20
1394.071639603063
 30
0.0
 11
1424.646682216083
 21
1395.271639603063
 31
0.0
  0
LINE
  5
266D
330
2
100
AcDbEntity
  8
エンボス
  6
Continuous
100
AcDbLine
 10
1424.646682216083
 20
1389.871639603063
 30
0.0
 11
1421.646682216083
 21
1391.071639603063
 31
0.0
  0
LINE
  5
266E
330
2
100
AcDbEntity
  8
エンボス
  6
Continuous
100
AcDbLine
 10
1424.646682216083
 20
1376.271639603063
 30
0.0
 11
1421.646682216083
 21
1375.071639603063
 31
0.0
  0
LINE
  5
266F
330
2
100
AcDbEntity
  8
エンボス
  6
Continuous
100
AcDbLine
 10
1421.646682216083
 20
1382.071639603063
 30
0.0
 11
1424.646682216083
 21
1380.871639603063
 31
0.0
  0
LINE
  5
2670
330
2
100
AcDbEntity
  8
エンボス
  6
Continuous
100
AcDbLine
 10
1421.646682216083
 20
1422.071639603063
 30
0.0
 11
1424.646682216083
 21
1423.271639603063
 31
0.0
  0
LINE
  5
2671
330
2
100
AcDbEntity
  8
エンボス
  6
Continuous
100
AcDbLine
 10
1424.646682216083
 20
1417.871639603063
 30
0.0
 11
1421.646682216083
 21
1419.071639603063
 31
0.0
  0
LINE
  5
2672
330
2
100
AcDbEntity
  8
エンボス
  6
Continuous
100
AcDbLine
 10
1424.646682216083
 20
1248.271639603063
 30
0.0
 11
1421.646682216083
 21
1247.071639603063
 31
0.0
  0
LINE
  5
2673
330
2
100
AcDbEntity
  8
エンボス
  6
Continuous
100
AcDbLine
 10
1421.646682216083
 20
1254.071639603063
 30
0.0
 11
1424.646682216083
 21
1252.871639603063
 31
0.0
  0
LINE
  5
2674
330
2
100
AcDbEntity
  8
エンボス
  6
Continuous
100
AcDbLine
 10
1421.646682216083
 20
1282.071639603063
 30
0.0
 11
1424.646682216083
 21
1280.871639603063
 31
0.0
  0
LINE
  5
2675
330
2
100
AcDbEntity
  8
エンボス
  6
Continuous
100
AcDbLine
 10
1424.646682216083
 20
1276.271639603063
 30
0.0
 11
1421.646682216083
 21
1275.071639603063
 31
0.0
  0
LINE
  5
2676
330
2
100
AcDbEntity
  8
エンボス
  6
Continuous
100
AcDbLine
 10
1424.646682216083
 20
1289.871639603063
 30
0.0
 11
1421.646682216083
 21
1291.071639603063
 31
0.0
  0
LINE
  5
2677
330
2
100
AcDbEntity
  8
エンボス
  6
Continuous
100
AcDbLine
 10
1421.646682216083
 20
1294.071639603063
 30
0.0
 11
1424.646682216083
 21
1295.271639603063
 31
0.0
  0
LINE
  5
2678
330
2
100
AcDbEntity
  8
エンボス
  6
Continuous
100
AcDbLine
 10
1424.646682216083
 20
1261.871639603063
 30
0.0
 11
1421.646682216083
 21
1263.071639603063
 31
0.0
  0
LINE
  5
2679
330
2
100
AcDbEntity
  8
エンボス
  6
Continuous
100
AcDbLine
 10
1421.646682216083
 20
1266.071639603063
 30
0.0
 11
1424.646682216083
 21
1267.271639603063
 31
0.0
  0
LINE
  5
267A
330
2
100
AcDbEntity
  8
エンボス
  6
Continuous
100
AcDbLine
 10
1424.646682216083
 20
1317.871639603063
 30
0.0
 11
1421.646682216083
 21
1319.071639603063
 31
0.0
  0
LINE
  5
267B
330
2
100
AcDbEntity
  8
エンボス
  6
Continuous
100
AcDbLine
 10
1421.646682216083
 20
1322.071639603063
 30
0.0
 11
1424.646682216083
 21
1323.271639603063
 31
0.0
  0
LINE
  5
267C
330
2
100
AcDbEntity
  8
エンボス
  6
Continuous
100
AcDbLine
 10
1424.646682216083
 20
1304.271639603063
 30
0.0
 11
1421.646682216083
 21
1303.071639603063
 31
0.0
  0
LINE
  5
267D
330
2
100
AcDbEntity
  8
エンボス
  6
Continuous
100
AcDbLine
 10
1421.646682216083
 20
1310.071639603063
 30
0.0
 11
1424.646682216083
 21
1308.871639603063
 31
0.0
  0
LINE
  5
267E
330
2
100
AcDbEntity
  8
エンボス
  6
Continuous
100
AcDbLine
 10
1424.646682216083
 20
1148.271639603063
 30
0.0
 11
1421.646682216083
 21
1147.071639603063
 31
0.0
  0
LINE
  5
267F
330
2
100
AcDbEntity
  8
エンボス
  6
Continuous
100
AcDbLine
 10
1421.646682216083
 20
1166.071639603063
 30
0.0
 11
1424.646682216083
 21
1167.271639603063
 31
0.0
  0
LINE
  5
2680
330
2
100
AcDbEntity
  8
エンボス
  6
Continuous
100
AcDbLine
 10
1424.646682216083
 20
1161.871639603063
 30
0.0
 11
1421.646682216083
 21
1163.071639603063
 31
0.0
  0
LINE
  5
2681
330
2
100
AcDbEntity
  8
エンボス
  6
Continuous
100
AcDbLine
 10
1424.646682216083
 20
1176.271639603063
 30
0.0
 11
1421.646682216083
 21
1175.071639603063
 31
0.0
  0
LINE
  5
2682
330
2
100
AcDbEntity
  8
エンボス
  6
Continuous
100
AcDbLine
 10
1421.646682216083
 20
1182.071639603063
 30
0.0
 11
1424.646682216083
 21
1180.871639603063
 31
0.0
  0
LINE
  5
2683
330
2
100
AcDbEntity
  8
エンボス
  6
Continuous
100
AcDbLine
 10
1421.646682216083
 20
1154.071639603063
 30
0.0
 11
1424.646682216083
 21
1152.871639603063
 31
0.0
  0
LINE
  5
2684
330
2
100
AcDbEntity
  8
エンボス
  6
Continuous
100
AcDbLine
 10
1421.646682216083
 20
1210.071639603063
 30
0.0
 11
1424.646682216083
 21
1208.871639603063
 31
0.0
  0
LINE
  5
2685
330
2
100
AcDbEntity
  8
エンボス
  6
Continuous
100
AcDbLine
 10
1424.646682216083
 20
1204.271639603063
 30
0.0
 11
1421.646682216083
 21
1203.071639603063
 31
0.0
  0
LINE
  5
2686
330
2
100
AcDbEntity
  8
エンボス
  6
Continuous
100
AcDbLine
 10
1421.646682216083
 20
1222.071639603063
 30
0.0
 11
1424.646682216083
 21
1223.271639603063
 31
0.0
  0
LINE
  5
2687
330
2
100
AcDbEntity
  8
エンボス
  6
Continuous
100
AcDbLine
 10
1424.646682216083
 20
1217.871639603063
 30
0.0
 11
1421.646682216083
 21
1219.071639603063
 31
0.0
  0
LINE
  5
2688
330
2
100
AcDbEntity
  8
エンボス
  6
Continuous
100
AcDbLine
 10
1421.646682216083
 20
1194.071639603063
 30
0.0
 11
1424.646682216083
 21
1195.271639603063
 31
0.0
  0
LINE
  5
2689
330
2
100
AcDbEntity
  8
エンボス
  6
Continuous
100
AcDbLine
 10
1424.646682216083
 20
1189.871639603063
 30
0.0
 11
1421.646682216083
 21
1191.071639603063
 31
0.0
  0
LINE
  5
268A
330
2
100
AcDbEntity
  8
エンボス
  6
Continuous
100
AcDbLine
 10
1421.646682216083
 20
1112.571639603063
 30
0.0
 11
1424.646682216083
 21
1113.771639603063
 31
0.0
  0
LINE
  5
268B
330
2
100
AcDbEntity
  8
エンボス
  6
Continuous
100
AcDbLine
 10
1424.646682216083
 20
1108.371639603063
 30
0.0
 11
1421.646682216083
 21
1109.571639603063
 31
0.0
  0
LINE
  5
268C
330
2
100
AcDbEntity
  8
エンボス
  6
Continuous
100
AcDbLine
 10
1421.646682216083
 20
1100.571639603063
 30
0.0
 11
1424.646682216083
 21
1099.371639603063
 31
0.0
  0
LINE
  5
268D
330
2
100
AcDbEntity
  8
エンボス
  6
Continuous
100
AcDbLine
 10
1424.646682216083
 20
1094.771639603063
 30
0.0
 11
1421.646682216083
 21
1093.571639603063
 31
0.0
  0
LINE
  5
268E
330
2
100
AcDbEntity
  8
エンボス
  6
Continuous
100
AcDbLine
 10
1424.646682216083
 20
1080.371639603063
 30
0.0
 11
1421.646682216083
 21
1081.571639603063
 31
0.0
  0
LINE
  5
268F
330
2
100
AcDbEntity
  8
エンボス
  6
Continuous
100
AcDbLine
 10
1421.646682216083
 20
1084.571639603063
 30
0.0
 11
1424.646682216083
 21
1085.771639603063
 31
0.0
  0
LINE
  5
2690
330
2
100
AcDbEntity
  8
エンボス
  6
Continuous
100
AcDbLine
 10
1424.646682216083
 20
1122.771639603063
 30
0.0
 11
1421.646682216083
 21
1121.571639603063
 31
0.0
  0
LINE
  5
2691
330
2
100
AcDbEntity
  8
エンボス
  6
Continuous
100
AcDbLine
 10
1421.646682216083
 20
1128.571639603063
 30
0.0
 11
1424.646682216083
 21
1127.371639603063
 31
0.0
  0
LINE
  5
2692
330
2
100
AcDbEntity
  8
本体
  6
Continuous
100
AcDbLine
 10
432.6466821860831
 20
1695.871639603063
 30
0.0
 11
432.6466821860831
 21
1637.871639603063
 31
0.0
  0
LINE
  5
2693
330
2
100
AcDbEntity
  8
本体
  6
Continuous
100
AcDbLine
 10
429.6466821860831
 20
1695.871639603063
 30
0.0
 11
429.6466821860831
 21
1637.871639603063
 31
0.0
  0
LINE
  5
2694
330
2
100
AcDbEntity
  8
本体
  6
Continuous
100
AcDbLine
 10
432.6466821860831
 20
1632.871639603063
 30
0.0
 11
432.6466821860831
 21
1537.871639603063
 31
0.0
  0
LINE
  5
2695
330
2
100
AcDbEntity
  8
本体
  6
Continuous
100
AcDbLine
 10
429.6466821860831
 20
1632.871639603063
 30
0.0
 11
429.6466821860831
 21
1537.871639603063
 31
0.0
  0
LINE
  5
2696
330
2
100
AcDbEntity
  8
本体
  6
Continuous
100
AcDbLine
 10
429.6466821860831
 20
1532.871639603063
 30
0.0
 11
429.6466821860831
 21
1437.871639603063
 31
0.0
  0
LINE
  5
2697
330
2
100
AcDbEntity
  8
本体
  6
Continuous
100
AcDbLine
 10
432.6466821860831
 20
1532.871639603063
 30
0.0
 11
432.6466821860831
 21
1437.871639603063
 31
0.0
  0
LINE
  5
2698
330
2
100
AcDbEntity
  8
本体
  6
Continuous
100
AcDbLine
 10
429.6466821860831
 20
1432.871639603063
 30
0.0
 11
429.6466821860831
 21
1337.871639603063
 31
0.0
  0
LINE
  5
2699
330
2
100
AcDbEntity
  8
本体
  6
Continuous
100
AcDbLine
 10
432.6466821860831
 20
1432.871639603063
 30
0.0
 11
432.6466821860831
 21
1337.871639603063
 31
0.0
  0
LINE
  5
269A
330
2
100
AcDbEntity
  8
本体
  6
Continuous
100
AcDbLine
 10
432.6466821860831
 20
1074.871639603063
 30
0.0
 11
432.6466821860831
 21
1132.871639603063
 31
0.0
  0
LINE
  5
269B
330
2
100
AcDbEntity
  8
本体
  6
Continuous
100
AcDbLine
 10
429.6466821860831
 20
1074.871639603063
 30
0.0
 11
429.6466821860831
 21
1132.871639603063
 31
0.0
  0
LINE
  5
269C
330
2
100
AcDbEntity
  8
本体
  6
Continuous
100
AcDbLine
 10
432.6466821860831
 20
1332.871639603063
 30
0.0
 11
432.6466821860831
 21
1237.871639603063
 31
0.0
  0
LINE
  5
269D
330
2
100
AcDbEntity
  8
本体
  6
Continuous
100
AcDbLine
 10
429.6466821860831
 20
1332.871639603063
 30
0.0
 11
429.6466821860831
 21
1237.871639603063
 31
0.0
  0
LINE
  5
269E
330
2
100
AcDbEntity
  8
本体
  6
Continuous
100
AcDbLine
 10
429.6466821860831
 20
1232.871639603063
 30
0.0
 11
429.6466821860831
 21
1137.871639603063
 31
0.0
  0
LINE
  5
269F
330
2
100
AcDbEntity
  8
本体
  6
Continuous
100
AcDbLine
 10
432.6466821860831
 20
1232.871639603063
 30
0.0
 11
432.6466821860831
 21
1137.871639603063
 31
0.0
  0
LINE
  5
26A6
330
2
100
AcDbEntity
  8
エンボス
  6
Continuous
100
AcDbLine
 10
429.6466822160832
 20
1663.571639603063
 30
0.0
 11
432.6466822160832
 21
1662.371639603063
 31
0.0
  0
LINE
  5
26A7
330
2
100
AcDbEntity
  8
エンボス
  6
Continuous
100
AcDbLine
 10
432.6466822160832
 20
1657.771639603063
 30
0.0
 11
429.6466822160832
 21
1656.571639603063
 31
0.0
  0
LINE
  5
26A8
330
2
100
AcDbEntity
  8
エンボス
  6
Continuous
100
AcDbLine
 10
432.6466822160832
 20
1643.371639603063
 30
0.0
 11
429.6466822160832
 21
1644.571639603063
 31
0.0
  0
LINE
  5
26A9
330
2
100
AcDbEntity
  8
エンボス
  6
Continuous
100
AcDbLine
 10
429.6466822160832
 20
1647.571639603063
 30
0.0
 11
432.6466822160832
 21
1648.771639603063
 31
0.0
  0
LINE
  5
26AA
330
2
100
AcDbEntity
  8
エンボス
  6
Continuous
100
AcDbLine
 10
432.6466822160832
 20
1671.371639603063
 30
0.0
 11
429.6466822160832
 21
1672.571639603063
 31
0.0
  0
LINE
  5
26AB
330
2
100
AcDbEntity
  8
エンボス
  6
Continuous
100
AcDbLine
 10
429.6466822160832
 20
1675.571639603063
 30
0.0
 11
432.6466822160832
 21
1676.771639603063
 31
0.0
  0
LINE
  5
26AC
330
2
100
AcDbEntity
  8
エンボス
  6
Continuous
100
AcDbLine
 10
432.6466822160832
 20
1685.771639603063
 30
0.0
 11
429.6466822160832
 21
1684.571639603063
 31
0.0
  0
LINE
  5
26AD
330
2
100
AcDbEntity
  8
エンボス
  6
Continuous
100
AcDbLine
 10
429.6466822160832
 20
1691.571639603063
 30
0.0
 11
432.6466822160832
 21
1690.371639603063
 31
0.0
  0
LINE
  5
26AE
330
2
100
AcDbEntity
  8
エンボス
  6
Continuous
100
AcDbLine
 10
432.6466822160832
 20
1548.271639603063
 30
0.0
 11
429.6466822160832
 21
1547.071639603063
 31
0.0
  0
LINE
  5
26AF
330
2
100
AcDbEntity
  8
エンボス
  6
Continuous
100
AcDbLine
 10
429.6466822160832
 20
1554.071639603063
 30
0.0
 11
432.6466822160832
 21
1552.871639603063
 31
0.0
  0
LINE
  5
26B0
330
2
100
AcDbEntity
  8
エンボス
  6
Continuous
100
AcDbLine
 10
429.6466822160832
 20
1582.071639603063
 30
0.0
 11
432.6466822160832
 21
1580.871639603063
 31
0.0
  0
LINE
  5
26B1
330
2
100
AcDbEntity
  8
エンボス
  6
Continuous
100
AcDbLine
 10
432.6466822160832
 20
1576.271639603063
 30
0.0
 11
429.6466822160832
 21
1575.071639603063
 31
0.0
  0
LINE
  5
26B2
330
2
100
AcDbEntity
  8
エンボス
  6
Continuous
100
AcDbLine
 10
432.6466822160832
 20
1589.871639603063
 30
0.0
 11
429.6466822160832
 21
1591.071639603063
 31
0.0
  0
LINE
  5
26B3
330
2
100
AcDbEntity
  8
エンボス
  6
Continuous
100
AcDbLine
 10
429.6466822160832
 20
1594.071639603063
 30
0.0
 11
432.6466822160832
 21
1595.271639603063
 31
0.0
  0
LINE
  5
26B4
330
2
100
AcDbEntity
  8
エンボス
  6
Continuous
100
AcDbLine
 10
432.6466822160832
 20
1561.871639603063
 30
0.0
 11
429.6466822160832
 21
1563.071639603063
 31
0.0
  0
LINE
  5
26B5
330
2
100
AcDbEntity
  8
エンボス
  6
Continuous
100
AcDbLine
 10
429.6466822160832
 20
1566.071639603063
 30
0.0
 11
432.6466822160832
 21
1567.271639603063
 31
0.0
  0
LINE
  5
26B6
330
2
100
AcDbEntity
  8
エンボス
  6
Continuous
100
AcDbLine
 10
432.6466822160832
 20
1617.871639603063
 30
0.0
 11
429.6466822160832
 21
1619.071639603063
 31
0.0
  0
LINE
  5
26B7
330
2
100
AcDbEntity
  8
エンボス
  6
Continuous
100
AcDbLine
 10
429.6466822160832
 20
1622.071639603063
 30
0.0
 11
432.6466822160832
 21
1623.271639603063
 31
0.0
  0
LINE
  5
26B8
330
2
100
AcDbEntity
  8
エンボス
  6
Continuous
100
AcDbLine
 10
432.6466822160832
 20
1604.271639603063
 30
0.0
 11
429.6466822160832
 21
1603.071639603063
 31
0.0
  0
LINE
  5
26B9
330
2
100
AcDbEntity
  8
エンボス
  6
Continuous
100
AcDbLine
 10
429.6466822160832
 20
1610.071639603063
 30
0.0
 11
432.6466822160832
 21
1608.871639603063
 31
0.0
  0
LINE
  5
26BA
330
2
100
AcDbEntity
  8
エンボス
  6
Continuous
100
AcDbLine
 10
429.6466822160832
 20
1466.071639603063
 30
0.0
 11
432.6466822160832
 21
1467.271639603063
 31
0.0
  0
LINE
  5
26BB
330
2
100
AcDbEntity
  8
エンボス
  6
Continuous
100
AcDbLine
 10
432.6466822160832
 20
1461.871639603063
 30
0.0
 11
429.6466822160832
 21
1463.071639603063
 31
0.0
  0
LINE
  5
26BC
330
2
100
AcDbEntity
  8
エンボス
  6
Continuous
100
AcDbLine
 10
432.6466822160832
 20
1476.271639603063
 30
0.0
 11
429.6466822160832
 21
1475.071639603063
 31
0.0
  0
LINE
  5
26BD
330
2
100
AcDbEntity
  8
エンボス
  6
Continuous
100
AcDbLine
 10
429.6466822160832
 20
1482.071639603063
 30
0.0
 11
432.6466822160832
 21
1480.871639603063
 31
0.0
  0
LINE
  5
26BE
330
2
100
AcDbEntity
  8
エンボス
  6
Continuous
100
AcDbLine
 10
429.6466822160832
 20
1454.071639603063
 30
0.0
 11
432.6466822160832
 21
1452.871639603063
 31
0.0
  0
LINE
  5
26BF
330
2
100
AcDbEntity
  8
エンボス
  6
Continuous
100
AcDbLine
 10
432.6466822160832
 20
1448.271639603063
 30
0.0
 11
429.6466822160832
 21
1447.071639603063
 31
0.0
  0
LINE
  5
26C0
330
2
100
AcDbEntity
  8
エンボス
  6
Continuous
100
AcDbLine
 10
429.6466822160832
 20
1510.071639603063
 30
0.0
 11
432.6466822160832
 21
1508.871639603063
 31
0.0
  0
LINE
  5
26C1
330
2
100
AcDbEntity
  8
エンボス
  6
Continuous
100
AcDbLine
 10
432.6466822160832
 20
1504.271639603063
 30
0.0
 11
429.6466822160832
 21
1503.071639603063
 31
0.0
  0
LINE
  5
26C2
330
2
100
AcDbEntity
  8
エンボス
  6
Continuous
100
AcDbLine
 10
432.6466822160832
 20
1517.871639603063
 30
0.0
 11
429.6466822160832
 21
1519.071639603063
 31
0.0
  0
LINE
  5
26C3
330
2
100
AcDbEntity
  8
エンボス
  6
Continuous
100
AcDbLine
 10
429.6466822160832
 20
1494.071639603063
 30
0.0
 11
432.6466822160832
 21
1495.271639603063
 31
0.0
  0
LINE
  5
26C4
330
2
100
AcDbEntity
  8
エンボス
  6
Continuous
100
AcDbLine
 10
432.6466822160832
 20
1489.871639603063
 30
0.0
 11
429.6466822160832
 21
1491.071639603063
 31
0.0
  0
LINE
  5
26C5
330
2
100
AcDbEntity
  8
エンボス
  6
Continuous
100
AcDbLine
 10
429.6466822160832
 20
1522.071639603063
 30
0.0
 11
432.6466822160832
 21
1523.271639603063
 31
0.0
  0
LINE
  5
26C6
330
2
100
AcDbEntity
  8
エンボス
  6
Continuous
100
AcDbLine
 10
429.6466822160832
 20
1366.071639603063
 30
0.0
 11
432.6466822160832
 21
1367.271639603063
 31
0.0
  0
LINE
  5
26C7
330
2
100
AcDbEntity
  8
エンボス
  6
Continuous
100
AcDbLine
 10
432.6466822160832
 20
1361.871639603063
 30
0.0
 11
429.6466822160832
 21
1363.071639603063
 31
0.0
  0
LINE
  5
26C8
330
2
100
AcDbEntity
  8
エンボス
  6
Continuous
100
AcDbLine
 10
429.6466822160832
 20
1354.071639603063
 30
0.0
 11
432.6466822160832
 21
1352.871639603063
 31
0.0
  0
LINE
  5
26C9
330
2
100
AcDbEntity
  8
エンボス
  6
Continuous
100
AcDbLine
 10
432.6466822160832
 20
1348.271639603063
 30
0.0
 11
429.6466822160832
 21
1347.071639603063
 31
0.0
  0
LINE
  5
26CA
330
2
100
AcDbEntity
  8
エンボス
  6
Continuous
100
AcDbLine
 10
429.6466822160832
 20
1410.071639603063
 30
0.0
 11
432.6466822160832
 21
1408.871639603063
 31
0.0
  0
LINE
  5
26CB
330
2
100
AcDbEntity
  8
エンボス
  6
Continuous
100
AcDbLine
 10
432.6466822160832
 20
1404.271639603063
 30
0.0
 11
429.6466822160832
 21
1403.071639603063
 31
0.0
  0
LINE
  5
26CC
330
2
100
AcDbEntity
  8
エンボス
  6
Continuous
100
AcDbLine
 10
429.6466822160832
 20
1394.071639603063
 30
0.0
 11
432.6466822160832
 21
1395.271639603063
 31
0.0
  0
LINE
  5
26CD
330
2
100
AcDbEntity
  8
エンボス
  6
Continuous
100
AcDbLine
 10
432.6466822160832
 20
1389.871639603063
 30
0.0
 11
429.6466822160832
 21
1391.071639603063
 31
0.0
  0
LINE
  5
26CE
330
2
100
AcDbEntity
  8
エンボス
  6
Continuous
100
AcDbLine
 10
432.6466822160832
 20
1376.271639603063
 30
0.0
 11
429.6466822160832
 21
1375.071639603063
 31
0.0
  0
LINE
  5
26CF
330
2
100
AcDbEntity
  8
エンボス
  6
Continuous
100
AcDbLine
 10
429.6466822160832
 20
1382.071639603063
 30
0.0
 11
432.6466822160832
 21
1380.871639603063
 31
0.0
  0
LINE
  5
26D0
330
2
100
AcDbEntity
  8
エンボス
  6
Continuous
100
AcDbLine
 10
429.6466822160832
 20
1422.071639603063
 30
0.0
 11
432.6466822160832
 21
1423.271639603063
 31
0.0
  0
LINE
  5
26D1
330
2
100
AcDbEntity
  8
エンボス
  6
Continuous
100
AcDbLine
 10
432.6466822160832
 20
1417.871639603063
 30
0.0
 11
429.6466822160832
 21
1419.071639603063
 31
0.0
  0
LINE
  5
26D2
330
2
100
AcDbEntity
  8
エンボス
  6
Continuous
100
AcDbLine
 10
432.6466822160832
 20
1248.271639603063
 30
0.0
 11
429.6466822160832
 21
1247.071639603063
 31
0.0
  0
LINE
  5
26D3
330
2
100
AcDbEntity
  8
エンボス
  6
Continuous
100
AcDbLine
 10
429.6466822160832
 20
1254.071639603063
 30
0.0
 11
432.6466822160832
 21
1252.871639603063
 31
0.0
  0
LINE
  5
26D4
330
2
100
AcDbEntity
  8
エンボス
  6
Continuous
100
AcDbLine
 10
429.6466822160832
 20
1282.071639603063
 30
0.0
 11
432.6466822160832
 21
1280.871639603063
 31
0.0
  0
LINE
  5
26D5
330
2
100
AcDbEntity
  8
エンボス
  6
Continuous
100
AcDbLine
 10
432.6466822160832
 20
1276.271639603063
 30
0.0
 11
429.6466822160832
 21
1275.071639603063
 31
0.0
  0
LINE
  5
26D6
330
2
100
AcDbEntity
  8
エンボス
  6
Continuous
100
AcDbLine
 10
432.6466822160832
 20
1289.871639603063
 30
0.0
 11
429.6466822160832
 21
1291.071639603063
 31
0.0
  0
LINE
  5
26D7
330
2
100
AcDbEntity
  8
エンボス
  6
Continuous
100
AcDbLine
 10
429.6466822160832
 20
1294.071639603063
 30
0.0
 11
432.6466822160832
 21
1295.271639603063
 31
0.0
  0
LINE
  5
26D8
330
2
100
AcDbEntity
  8
エンボス
  6
Continuous
100
AcDbLine
 10
432.6466822160832
 20
1261.871639603063
 30
0.0
 11
429.6466822160832
 21
1263.071639603063
 31
0.0
  0
LINE
  5
26D9
330
2
100
AcDbEntity
  8
エンボス
  6
Continuous
100
AcDbLine
 10
429.6466822160832
 20
1266.071639603063
 30
0.0
 11
432.6466822160832
 21
1267.271639603063
 31
0.0
  0
LINE
  5
26DA
330
2
100
AcDbEntity
  8
エンボス
  6
Continuous
100
AcDbLine
 10
432.6466822160832
 20
1317.871639603063
 30
0.0
 11
429.6466822160832
 21
1319.071639603063
 31
0.0
  0
LINE
  5
26DB
330
2
100
AcDbEntity
  8
エンボス
  6
Continuous
100
AcDbLine
 10
429.6466822160832
 20
1322.071639603063
 30
0.0
 11
432.6466822160832
 21
1323.271639603063
 31
0.0
  0
LINE
  5
26DC
330
2
100
AcDbEntity
  8
エンボス
  6
Continuous
100
AcDbLine
 10
432.6466822160832
 20
1304.271639603063
 30
0.0
 11
429.6466822160832
 21
1303.071639603063
 31
0.0
  0
LINE
  5
26DD
330
2
100
AcDbEntity
  8
エンボス
  6
Continuous
100
AcDbLine
 10
429.6466822160832
 20
1310.071639603063
 30
0.0
 11
432.6466822160832
 21
1308.871639603063
 31
0.0
  0
LINE
  5
26DE
330
2
100
AcDbEntity
  8
エンボス
  6
Continuous
100
AcDbLine
 10
432.6466822160832
 20
1148.271639603063
 30
0.0
 11
429.6466822160832
 21
1147.071639603063
 31
0.0
  0
LINE
  5
26DF
330
2
100
AcDbEntity
  8
エンボス
  6
Continuous
100
AcDbLine
 10
429.6466822160832
 20
1166.071639603063
 30
0.0
 11
432.6466822160832
 21
1167.271639603063
 31
0.0
  0
LINE
  5
26E0
330
2
100
AcDbEntity
  8
エンボス
  6
Continuous
100
AcDbLine
 10
432.6466822160832
 20
1161.871639603063
 30
0.0
 11
429.6466822160832
 21
1163.071639603063
 31
0.0
  0
LINE
  5
26E1
330
2
100
AcDbEntity
  8
エンボス
  6
Continuous
100
AcDbLine
 10
432.6466822160832
 20
1176.271639603063
 30
0.0
 11
429.6466822160832
 21
1175.071639603063
 31
0.0
  0
LINE
  5
26E2
330
2
100
AcDbEntity
  8
エンボス
  6
Continuous
100
AcDbLine
 10
429.6466822160832
 20
1182.071639603063
 30
0.0
 11
432.6466822160832
 21
1180.871639603063
 31
0.0
  0
LINE
  5
26E3
330
2
100
AcDbEntity
  8
エンボス
  6
Continuous
100
AcDbLine
 10
429.6466822160832
 20
1154.071639603063
 30
0.0
 11
432.6466822160832
 21
1152.871639603063
 31
0.0
  0
LINE
  5
26E4
330
2
100
AcDbEntity
  8
エンボス
  6
Continuous
100
AcDbLine
 10
429.6466822160832
 20
1210.071639603063
 30
0.0
 11
432.6466822160832
 21
1208.871639603063
 31
0.0
  0
LINE
  5
26E5
330
2
100
AcDbEntity
  8
エンボス
  6
Continuous
100
AcDbLine
 10
432.6466822160832
 20
1204.271639603063
 30
0.0
 11
429.6466822160832
 21
1203.071639603063
 31
0.0
  0
LINE
  5
26E6
330
2
100
AcDbEntity
  8
エンボス
  6
Continuous
100
AcDbLine
 10
429.6466822160832
 20
1222.071639603063
 30
0.0
 11
432.6466822160832
 21
1223.271639603063
 31
0.0
  0
LINE
  5
26E7
330
2
100
AcDbEntity
  8
エンボス
  6
Continuous
100
AcDbLine
 10
432.6466822160832
 20
1217.871639603063
 30
0.0
 11
429.6466822160832
 21
1219.071639603063
 31
0.0
  0
LINE
  5
26E8
330
2
100
AcDbEntity
  8
エンボス
  6
Continuous
100
AcDbLine
 10
429.6466822160832
 20
1194.071639603063
 30
0.0
 11
432.6466822160832
 21
1195.271639603063
 31
0.0
  0
LINE
  5
26E9
330
2
100
AcDbEntity
  8
エンボス
  6
Continuous
100
AcDbLine
 10
432.6466822160832
 20
1189.871639603063
 30
0.0
 11
429.6466822160832
 21
1191.071639603063
 31
0.0
  0
LINE
  5
26EA
330
2
100
AcDbEntity
  8
エンボス
  6
Continuous
100
AcDbLine
 10
429.6466822160832
 20
1112.571639603063
 30
0.0
 11
432.6466822160832
 21
1113.771639603063
 31
0.0
  0
LINE
  5
26EB
330
2
100
AcDbEntity
  8
エンボス
  6
Continuous
100
AcDbLine
 10
432.6466822160832
 20
1108.371639603063
 30
0.0
 11
429.6466822160832
 21
1109.571639603063
 31
0.0
  0
LINE
  5
26EC
330
2
100
AcDbEntity
  8
エンボス
  6
Continuous
100
AcDbLine
 10
429.6466822160832
 20
1100.571639603063
 30
0.0
 11
432.6466822160832
 21
1099.371639603063
 31
0.0
  0
LINE
  5
26ED
330
2
100
AcDbEntity
  8
エンボス
  6
Continuous
100
AcDbLine
 10
432.6466822160832
 20
1094.771639603063
 30
0.0
 11
429.6466822160832
 21
1093.571639603063
 31
0.0
  0
LINE
  5
26EE
330
2
100
AcDbEntity
  8
エンボス
  6
Continuous
100
AcDbLine
 10
432.6466822160832
 20
1080.371639603063
 30
0.0
 11
429.6466822160832
 21
1081.571639603063
 31
0.0
  0
LINE
  5
26EF
330
2
100
AcDbEntity
  8
エンボス
  6
Continuous
100
AcDbLine
 10
429.6466822160832
 20
1084.571639603063
 30
0.0
 11
432.6466822160832
 21
1085.771639603063
 31
0.0
  0
LINE
  5
26F0
330
2
100
AcDbEntity
  8
エンボス
  6
Continuous
100
AcDbLine
 10
432.6466822160832
 20
1122.771639603063
 30
0.0
 11
429.6466822160832
 21
1121.571639603063
 31
0.0
  0
LINE
  5
26F1
330
2
100
AcDbEntity
  8
エンボス
  6
Continuous
100
AcDbLine
 10
429.6466822160832
 20
1128.571639603063
 30
0.0
 11
432.6466822160832
 21
1127.371639603063
 31
0.0
  0
LINE
  5
26F2
330
2
100
AcDbEntity
  8
本体
 48
3.0
100
AcDbLine
 10
429.6466821860831
 20
1700.371639603063
 30
0.0
 11
429.6466821860831
 21
1070.371639603063
 31
0.0
  0
INSERT
  5
26FA
102
{ACAD_REACTORS
330
2762
102
}
330
2
100
AcDbEntity
  8
本体
100
AcDbBlockReference
  2
*U17
 10
437.4251632010832
 20
1385.371639603063
 30
0.0
  0
ENDSEC
  0
SECTION
  2
OBJECTS
  0
DICTIONARY
  5
7
330
0
100
AcDbDictionary
281
     1
  3
ACAD_ASSOCNETWORK
350
25D2
  3
ACAD_CIP_PREVIOUS_PRODUCT_INFO
350
2419
  3
ACAD_COLOR
350
23F7
  3
ACAD_DETAILVIEWSTYLE
350
2410
  3
ACAD_GROUP
350
1FB8
  3
ACAD_LAYOUT
350
1F9E
  3
ACAD_MATERIAL
350
23C5
  3
ACAD_MLEADERSTYLE
350
240C
  3
ACAD_MLINESTYLE
350
1FB9
  3
ACAD_PLOTSETTINGS
350
1FBA
  3
ACAD_PLOTSTYLENAME
350
6
  3
ACAD_SCALELIST
350
23FA
  3
ACAD_SECTIONVIEWSTYLE
350
240E
  3
ACAD_TABLESTYLE
350
23F8
  3
ACAD_VISUALSTYLE
350
23DE
  3
ACDB_RECOMPOSE_DATA
350
286A
  3
AcDbVariableDictionary
350
2476
  3
DWGPROPS
350
286B
  0
DICTIONARY
  5
2439
330
1FB3
100
AcDbDictionary
280
     1
281
     1
  0
DICTIONARY
  5
248F
330
1FAB
100
AcDbDictionary
280
     1
281
     1
  3
ACAD_LAYERSTATES
360
2490
  0
DICTIONARY
  5
241A
330
76
100
AcDbDictionary
280
     1
281
     1
  3
ADSK_XREC_LAYER_RECONCILED
360
241B
  0
DICTIONARY
  5
241C
330
80
100
AcDbDictionary
280
     1
281
     1
  3
ADSK_XREC_LAYER_RECONCILED
360
241D
  0
DICTIONARY
  5
241E
330
4
100
AcDbDictionary
280
     1
281
     1
  3
ADSK_XREC_LAYER_RECONCILED
360
241F
  0
DICTIONARY
  5
2422
330
7CC
100
AcDbDictionary
280
     1
281
     1
  3
ADSK_XREC_LAYER_RECONCILED
360
2423
  0
DICTIONARY
  5
2424
330
11
100
AcDbDictionary
280
     1
281
     1
  3
ADSK_XREC_LAYER_RECONCILED
360
2425
  0
DICTIONARY
  5
2428
330
236B
100
AcDbDictionary
280
     1
281
     1
  3
ADSK_XREC_LAYER_RECONCILED
360
2429
  0
DICTIONARY
  5
242A
330
2370
100
AcDbDictionary
280
     1
281
     1
  3
ADSK_XREC_LAYER_RECONCILED
360
242B
  0
DICTIONARY
  5
242C
330
2380
100
AcDbDictionary
280
     1
281
     1
  3
ADSK_XREC_LAYER_RECONCILED
360
242D
  0
DICTIONARY
  5
1F99
330
2
100
AcDbDictionary
280
     1
281
     1
  3
ACAD_ASSOCNETWORK
360
25D0
  3
ACAD_LAYOUTSELFREF
360
2317
  0
DICTIONARY
  5
1FA0
330
1F9F
100
AcDbDictionary
280
     1
281
     1
  3
ACAD_LAYOUTSELFREF
360
2324
  0
DICTIONARY
  5
1FA6
330
1FA5
100
AcDbDictionary
280
     1
281
     1
  3
ACAD_LAYOUTSELFREF
360
2325
  0
DICTIONARY
  5
2489
330
2488
100
AcDbDictionary
280
     1
281
     1
  0
DICTIONARY
  5
25B4
330
25A9
100
AcDbDictionary
280
     1
281
     1
  0
DICTIONARY
  5
2800
330
25C6
100
AcDbDictionary
280
     1
281
     1
  3
AcDbBlockTableRecordData
360
28AC
  0
DICTIONARY
  5
2803
330
26F7
100
AcDbDictionary
280
     1
281
     1
  3
AcDbBlockTableRecordData
360
28AE
  0
DICTIONARY
  5
281C
330
281A
100
AcDbDictionary
280
     1
281
     1
  0
DICTIONARY
  5
25D2
102
{ACAD_REACTORS
330
7
102
}
330
7
100
AcDbDictionary
281
     1
  3
ACAD_ASSOCNETWORK
350
25D3
  0
XRECORD
  5
2419
102
{ACAD_REACTORS
330
7
102
}
330
7
100
AcDbXrecord
280
     1
300
ACDLT
300
2014
300
ACDLT_F_S
  0
DICTIONARY
  5
23F7
102
{ACAD_REACTORS
330
7
102
}
330
7
100
AcDbDictionary
281
     1
  0
DICTIONARY
  5
2410
102
{ACAD_REACTORS
330
7
102
}
330
7
100
AcDbDictionary
281
     1
  3
Metric50
350
2411
  0
DICTIONARY
  5
1FB8
102
{ACAD_REACTORS
330
7
102
}
330
7
100
AcDbDictionary
281
     1
  0
DICTIONARY
  5
1F9E
102
{ACAD_REACTORS
330
7
102
}
330
7
100
AcDbDictionary
281
     1
  3
Layout1
350
1FA4
  3
Layout2
350
1FAA
  3
Model
350
1F9D
  0
DICTIONARY
  5
23C5
102
{ACAD_REACTORS
330
7
102
}
330
7
100
AcDbDictionary
281
     1
  3
ByBlock
350
23CE
  3
ByLayer
350
23C6
  3
Global
350
23D6
  0
DICTIONARY
  5
240C
102
{ACAD_REACTORS
330
7
102
}
330
7
100
AcDbDictionary
281
     1
  3
Standard
350
240D
  0
DICTIONARY
  5
1FB9
102
{ACAD_REACTORS
330
7
102
}
330
7
100
AcDbDictionary
281
     1
  3
Standard
350
1FBB
  0
DICTIONARY
  5
1FBA
102
{ACAD_REACTORS
330
7
102
}
330
7
100
AcDbDictionary
281
     1
  0
ACDBDICTIONARYWDFLT
  5
6
102
{ACAD_REACTORS
330
7
102
}
330
7
100
AcDbDictionary
281
     1
  3
Normal
350
5
100
AcDbDictionaryWithDefault
340
5
  0
DICTIONARY
  5
23FA
102
{ACAD_REACTORS
330
7
102
}
330
7
100
AcDbDictionary
281
     1
  3
A0
350
23FB
  3
A1
350
23FC
  3
A2
350
23FD
  3
A3
350
23FE
  3
A4
350
23FF
  3
A5
350
2400
  3
A6
350
2401
  3
A7
350
2402
  3
A8
350
2403
  3
A9
350
2404
  3
B0
350
2405
  3
B1
350
2406
  3
B2
350
2407
  3
B3
350
2408
  3
B4
350
2409
  3
B5
350
240A
  3
B6
350
240B
  0
DICTIONARY
  5
240E
102
{ACAD_REACTORS
330
7
102
}
330
7
100
AcDbDictionary
281
     1
  3
Metric50
350
240F
  0
DICTIONARY
  5
23F8
102
{ACAD_REACTORS
330
7
102
}
330
7
100
AcDbDictionary
281
     1
  3
Standard
350
23F9
  0
DICTIONARY
  5
23DE
102
{ACAD_REACTORS
330
7
102
}
330
7
100
AcDbDictionary
281
     1
  3
2dWireframe
350
23E4
  3
Basic
350
23E3
  3
Brighten
350
23EA
  3
ColorChange
350
23EE
  3
Conceptual
350
23E7
  3
Dim
350
23E9
  3
EdgeColorOff
350
23F6
  3
Facepattern
350
23ED
  3
Flat
350
23DF
  3
FlatWithEdges
350
23E0
  3
Gouraud
350
23E1
  3
GouraudWithEdges
350
23E2
  3
Hidden
350
23E6
  3
JitterOff
350
23F4
  3
Linepattern
350
23EC
  3
OverhangOff
350
23F5
  3
Realistic
350
23E8
  3
Shaded
350
23F3
  3
Shaded with edges
350
23F2
  3
Shades of Gray
350
23EF
  3
Sketchy
350
23F0
  3
Thicken
350
23EB
  3
Wireframe
350
23E5
  3
X-Ray
350
23F1
  0
XRECORD
  5
286A
102
{ACAD_REACTORS
330
7
102
}
330
7
100
AcDbXrecord
280
     1
 90
        1
330
23F9
  0
DICTIONARY
  5
2476
102
{ACAD_REACTORS
330
7
102
}
330
7
100
AcDbDictionary
281
     1
  3
CANNOSCALE
350
247B
  3
CMLEADERSTYLE
350
2478
  3
CTABLESTYLE
350
2477
  3
CVIEWDETAILSTYLE
350
2479
  3
CVIEWSECTIONSTYLE
350
247A
  3
DIMASSOC
350
247E
  3
INDEXCTL
350
247D
  3
SORTENTS
350
247C
  3
XCLIPFRAME
350
2868
  0
XRECORD
  5
286B
102
{ACAD_REACTORS
330
7
102
}
330
7
100
AcDbXrecord
280
     1
  1
DWGPROPS COOKIE
  2

  3

  4

  6

  7

  8
takara
  9

300
=
301
=
302
=
303
=
304
=
305
=
306
=
307
=
308
=
309
=
 40
0.0407001736111111
 41
2453510.558637211
 42
2457557.645127893
  1

 90
        0
  0
DICTIONARY
  5
2490
102
{ACAD_REACTORS
330
248F
102
}
330
248F
100
AcDbDictionary
281
     1
  3
_LAYISO_STATE
350
25BE
1001
AcLayerTools
1000
1F9D
1000
0
  0
XRECORD
  5
241B
102
{ACAD_REACTORS
330
241A
102
}
330
241A
100
AcDbXrecord
280
     1
290
     1
  0
XRECORD
  5
241D
102
{ACAD_REACTORS
330
241C
102
}
330
241C
100
AcDbXrecord
280
     1
290
     1
  0
XRECORD
  5
241F
102
{ACAD_REACTORS
330
241E
102
}
330
241E
100
AcDbXrecord
280
     1
290
     1
  0
XRECORD
  5
2423
102
{ACAD_REACTORS
330
2422
102
}
330
2422
100
AcDbXrecord
280
     1
290
     1
  0
XRECORD
  5
2425
102
{ACAD_REACTORS
330
2424
102
}
330
2424
100
AcDbXrecord
280
     1
290
     1
  0
XRECORD
  5
2429
102
{ACAD_REACTORS
330
2428
102
}
330
2428
100
AcDbXrecord
280
     1
290
     1
  0
XRECORD
  5
242B
102
{ACAD_REACTORS
330
242A
102
}
330
242A
100
AcDbXrecord
280
     1
290
     1
  0
XRECORD
  5
242D
102
{ACAD_REACTORS
330
242C
102
}
330
242C
100
AcDbXrecord
280
     1
290
     1
  0
DICTIONARY
  5
25D0
102
{ACAD_REACTORS
330
1F99
102
}
330
1F99
100
AcDbDictionary
281
     1
  3
ACAD_ASSOCNETWORK
350
25D1
  0
XRECORD
  5
2317
102
{ACAD_REACTORS
330
1F99
102
}
330
1F99
100
AcDbXrecord
280
     1
340
2
  0
XRECORD
  5
2324
102
{ACAD_REACTORS
330
1FA0
102
}
330
1FA0
100
AcDbXrecord
280
     1
340
1F9F
  0
XRECORD
  5
2325
102
{ACAD_REACTORS
330
1FA6
102
}
330
1FA6
100
AcDbXrecord
280
     1
340
1FA5
  0
DICTIONARY
  5
28AC
102
{ACAD_REACTORS
330
2800
102
}
330
2800
100
AcDbDictionary
280
     1
281
     1
  3
Edit
360
28AD
  0
DICTIONARY
  5
28AE
102
{ACAD_REACTORS
330
2803
102
}
330
2803
100
AcDbDictionary
280
     1
281
     1
  3
Edit
360
28AF
  0
ACDBASSOCNETWORK
  5
25D3
102
{ACAD_REACTORS
330
25D2
102
}
330
25D2
100
AcDbAssocAction
 90
        1
 90
        1
330
0
360
0
 90
        0
 90
        0
 90
        0
100
AcDbAssocNetwork
 90
        0
 90
        1
 90
        1
330
25D1
 90
        1
330
25D1
  0
ACDBDETAILVIEWSTYLE
  5
2411
102
{ACAD_XDICTIONARY
360
28AA
102
}
102
{ACAD_REACTORS
330
2410
102
}
330
2410
100
AcDbModelDocViewStyle
 70
     0
  3
Metric50
290
     0
100
AcDbDetailViewStyle
 70
     0
 71
     0
 90
        3
 71
     1
340
9
 40
5.0
340
0
 40
5.0
300

 40
0.0
280
     1
 71
     2
340
8
 90
       25
 71
     3
340
9
 40
5.0
 90
        0
 40
15.0
 90
        1
300
%<\AcVar ViewDetailId>% (%<\AcVar ViewScale \f "%sn">%)
 71
     4
340
8
 90
       25
340
8
 90
       25
280
     0
  0
LAYOUT
  5
1FA4
102
{ACAD_XDICTIONARY
360
286E
102
}
102
{ACAD_REACTORS
330
1F9E
102
}
330
1F9E
100
AcDbPlotSettings
  1

  2
None
  4

  6

 40
0.0
 41
0.0
 42
0.0
 43
0.0
 44
0.0
 45
0.0
 46
0.0
 47
0.0
 48
0.0
 49
0.0
140
0.0
141
0.0
142
1.0
143
1.0
 70
   688
 72
     0
 73
     0
 74
     5
  7
monochrome.ctb
 75
    16
147
1.0
148
0.0
149
0.0
100
AcDbLayout
  1
Layout1
 70
     1
 71
     1
 10
0.0
 20
0.0
 11
12.0
 21
9.0
 12
0.0
 22
0.0
 32
0.0
 14
0.0
 24
0.0
 34
0.0
 15
0.0
 25
0.0
 35
0.0
146
0.0
 13
0.0
 23
0.0
 33
0.0
 16
1.0
 26
0.0
 36
0.0
 17
0.0
 27
1.0
 37
0.0
 76
     0
330
1F9F
  0
LAYOUT
  5
1FAA
102
{ACAD_XDICTIONARY
360
2870
102
}
102
{ACAD_REACTORS
330
1F9E
102
}
330
1F9E
100
AcDbPlotSettings
  1

  2
None
  4

  6

 40
0.0
 41
0.0
 42
0.0
 43
0.0
 44
0.0
 45
0.0
 46
0.0
 47
0.0
 48
0.0
 49
0.0
140
0.0
141
0.0
142
1.0
143
1.0
 70
   688
 72
     0
 73
     0
 74
     5
  7
monochrome.ctb
 75
    16
147
1.0
148
0.0
149
0.0
100
AcDbLayout
  1
Layout2
 70
     1
 71
     2
 10
0.0
 20
0.0
 11
12.0
 21
9.0
 12
0.0
 22
0.0
 32
0.0
 14
0.0
 24
0.0
 34
0.0
 15
0.0
 25
0.0
 35
0.0
146
0.0
 13
0.0
 23
0.0
 33
0.0
 16
1.0
 26
0.0
 36
0.0
 17
0.0
 27
1.0
 37
0.0
 76
     0
330
1FA5
  0
LAYOUT
  5
1F9D
102
{ACAD_XDICTIONARY
360
286C
102
}
102
{ACAD_REACTORS
330
1F9E
102
}
330
1F9E
100
AcDbPlotSettings
  1

  2
EPSON LP-9400
  4
A4
  6

 40
5.873749732971191
 41
5.873747825622558
 42
5.873748779296875
 43
5.873748779296875
 44
209.9733276367187
 45
297.0106506347656
 46
2.339999999999999
 47
0.0
 48
0.0
 49
0.0
140
0.0
141
0.0
142
1.0
143
9.816891609963194
 70
 11956
 72
     1
 73
     1
 74
     1
  7
monochrome.ctb
 75
     0
147
0.1018652379725877
148
1264.94917075748
149
959.6633564695521
100
AcDbLayout
  1
Model
 70
     1
 71
     0
 10
0.0
 20
0.0
 11
12.0
 21
9.0
 12
0.0
 22
0.0
 32
0.0
 14
0.0
 24
0.0
 34
0.0
 15
0.0
 25
0.0
 35
0.0
146
0.0
 13
0.0
 23
0.0
 33
0.0
 16
1.0
 26
0.0
 36
0.0
 17
0.0
 27
1.0
 37
0.0
 76
     0
330
2
331
23C3
  0
MATERIAL
  5
23CE
102
{ACAD_XDICTIONARY
360
23CF
102
}
102
{ACAD_REACTORS
330
23C5
102
}
330
23C5
100
AcDbMaterial
  1
ByBlock
 72
     0
 43
0.0008202099737533
 43
0.0
 43
0.0
 43
0.0
 43
0.0
 43
0.0008202099737533
 43
0.0
 43
0.0
 43
0.0
 43
0.0
 43
1.0
 43
0.0
 43
0.0
 43
0.0
 43
0.0
 43
1.0
 77
     0
 47
0.0008202099737533
 47
0.0
 47
0.0
 47
0.0
 47
0.0
 47
0.0008202099737533
 47
0.0
 47
0.0
 47
0.0
 47
0.0
 47
1.0
 47
0.0
 47
0.0
 47
0.0
 47
0.0
 47
1.0
171
     0
 49
0.0008202099737533
 49
0.0
 49
0.0
 49
0.0
 49
0.0
 49
0.0008202099737533
 49
0.0
 49
0.0
 49
0.0
 49
0.0
 49
1.0
 49
0.0
 49
0.0
 49
0.0
 49
0.0
 49
1.0
175
     0
142
0.0008202099737533
142
0.0
142
0.0
142
0.0
142
0.0
142
0.0008202099737533
142
0.0
142
0.0
142
0.0
142
0.0
142
1.0
142
0.0
142
0.0
142
0.0
142
0.0
142
1.0
179
     0
144
0.0008202099737533
144
0.0
144
0.0
144
0.0
144
0.0
144
0.0008202099737533
144
0.0
144
0.0
144
0.0
144
0.0
144
1.0
144
0.0
144
0.0
144
0.0
144
0.0
144
1.0
147
0.0008202099737533
147
0.0
147
0.0
147
0.0
147
0.0
147
0.0008202099737533
147
0.0
147
0.0
147
0.0
147
0.0
147
1.0
147
0.0
147
0.0
147
0.0
147
0.0
147
1.0
  0
MATERIAL
  5
23C6
102
{ACAD_XDICTIONARY
360
23C7
102
}
102
{ACAD_REACTORS
330
23C5
102
}
330
23C5
100
AcDbMaterial
  1
ByLayer
 72
     0
 43
0.0008202099737533
 43
0.0
 43
0.0
 43
0.0
 43
0.0
 43
0.0008202099737533
 43
0.0
 43
0.0
 43
0.0
 43
0.0
 43
1.0
 43
0.0
 43
0.0
 43
0.0
 43
0.0
 43
1.0
 77
     0
 47
0.0008202099737533
 47
0.0
 47
0.0
 47
0.0
 47
0.0
 47
0.0008202099737533
 47
0.0
 47
0.0
 47
0.0
 47
0.0
 47
1.0
 47
0.0
 47
0.0
 47
0.0
 47
0.0
 47
1.0
171
     0
 49
0.0008202099737533
 49
0.0
 49
0.0
 49
0.0
 49
0.0
 49
0.0008202099737533
 49
0.0
 49
0.0
 49
0.0
 49
0.0
 49
1.0
 49
0.0
 49
0.0
 49
0.0
 49
0.0
 49
1.0
175
     0
142
0.0008202099737533
142
0.0
142
0.0
142
0.0
142
0.0
142
0.0008202099737533
142
0.0
142
0.0
142
0.0
142
0.0
142
1.0
142
0.0
142
0.0
142
0.0
142
0.0
142
1.0
179
     0
144
0.0008202099737533
144
0.0
144
0.0
144
0.0
144
0.0
144
0.0008202099737533
144
0.0
144
0.0
144
0.0
144
0.0
144
1.0
144
0.0
144
0.0
144
0.0
144
0.0
144
1.0
147
0.0008202099737533
147
0.0
147
0.0
147
0.0
147
0.0
147
0.0008202099737533
147
0.0
147
0.0
147
0.0
147
0.0
147
1.0
147
0.0
147
0.0
147
0.0
147
0.0
147
1.0
  0
MATERIAL
  5
23D6
102
{ACAD_XDICTIONARY
360
23D7
102
}
102
{ACAD_REACTORS
330
23C5
102
}
330
23C5
100
AcDbMaterial
  1
Global
 72
     0
 43
0.0008202099737533
 43
0.0
 43
0.0
 43
0.0
 43
0.0
 43
0.0008202099737533
 43
0.0
 43
0.0
 43
0.0
 43
0.0
 43
1.0
 43
0.0
 43
0.0
 43
0.0
 43
0.0
 43
1.0
 77
     0
 47
0.0008202099737533
 47
0.0
 47
0.0
 47
0.0
 47
0.0
 47
0.0008202099737533
 47
0.0
 47
0.0
 47
0.0
 47
0.0
 47
1.0
 47
0.0
 47
0.0
 47
0.0
 47
0.0
 47
1.0
171
     0
 49
0.0008202099737533
 49
0.0
 49
0.0
 49
0.0
 49
0.0
 49
0.0008202099737533
 49
0.0
 49
0.0
 49
0.0
 49
0.0
 49
1.0
 49
0.0
 49
0.0
 49
0.0
 49
0.0
 49
1.0
175
     0
142
0.0008202099737533
142
0.0
142
0.0
142
0.0
142
0.0
142
0.0008202099737533
142
0.0
142
0.0
142
0.0
142
0.0
142
1.0
142
0.0
142
0.0
142
0.0
142
0.0
142
1.0
179
     0
144
0.0008202099737533
144
0.0
144
0.0
144
0.0
144
0.0
144
0.0008202099737533
144
0.0
144
0.0
144
0.0
144
0.0
144
1.0
144
0.0
144
0.0
144
0.0
144
0.0
144
1.0
147
0.0008202099737533
147
0.0
147
0.0
147
0.0
147
0.0
147
0.0008202099737533
147
0.0
147
0.0
147
0.0
147
0.0
147
1.0
147
0.0
147
0.0
147
0.0
147
0.0
147
1.0
  0
MLEADERSTYLE
  5
240D
102
{ACAD_XDICTIONARY
360
28A6
102
}
102
{ACAD_REACTORS
330
240C
102
}
330
240C
100
AcDbMLeaderStyle
170
     2
171
     1
172
     0
 90
        2
 40
0.0
 41
0.0
173
     1
 91
-1056964608
340
1FAF
 92
       -2
290
     1
 42
2.0
291
     1
 43
0.36
  3
Standard
 44
4.0
300

342
9
174
     1
178
     6
175
     1
176
     0
 93
-1056964608
 45
4.0
292
     0
297
     0
 46
4.0
 94
-1056964608
 47
1.0
 49
1.0
140
1.0
293
     1
141
0.0
294
     1
177
     0
142
1.0
295
     0
296
     0
143
0.125
1001
ACAD_MLEADERVER
1070
     2
  0
MLINESTYLE
  5
1FBB
102
{ACAD_REACTORS
330
1FB9
102
}
330
1FB9
100
AcDbMlineStyle
  2
STANDARD
 70
     0
  3

 62
   256
 51
90.0
 52
90.0
 71
     2
 49
0.5
 62
   256
  6
BYLAYER
 49
-0.5
 62
   256
  6
BYLAYER
  0
ACDBPLACEHOLDER
  5
5
102
{ACAD_REACTORS
330
6
102
}
330
6
  0
SCALE
  5
23FB
102
{ACAD_REACTORS
330
23FA
102
}
330
23FA
100
AcDbScale
 70
     0
300
1:1
140
1.0
141
1.0
290
     1
  0
SCALE
  5
23FC
102
{ACAD_REACTORS
330
23FA
102
}
330
23FA
100
AcDbScale
 70
     0
300
1:2
140
1.0
141
2.0
290
     0
  0
SCALE
  5
23FD
102
{ACAD_REACTORS
330
23FA
102
}
330
23FA
100
AcDbScale
 70
     0
300
1:4
140
1.0
141
4.0
290
     0
  0
SCALE
  5
23FE
102
{ACAD_REACTORS
330
23FA
102
}
330
23FA
100
AcDbScale
 70
     0
300
1:5
140
1.0
141
5.0
290
     0
  0
SCALE
  5
23FF
102
{ACAD_REACTORS
330
23FA
102
}
330
23FA
100
AcDbScale
 70
     0
300
1:8
140
1.0
141
8.0
290
     0
  0
SCALE
  5
2400
102
{ACAD_REACTORS
330
23FA
102
}
330
23FA
100
AcDbScale
 70
     0
300
1:10
140
1.0
141
10.0
290
     0
  0
SCALE
  5
2401
102
{ACAD_REACTORS
330
23FA
102
}
330
23FA
100
AcDbScale
 70
     0
300
1:16
140
1.0
141
16.0
290
     0
  0
SCALE
  5
2402
102
{ACAD_REACTORS
330
23FA
102
}
330
23FA
100
AcDbScale
 70
     0
300
1:20
140
1.0
141
20.0
290
     0
  0
SCALE
  5
2403
102
{ACAD_REACTORS
330
23FA
102
}
330
23FA
100
AcDbScale
 70
     0
300
1:30
140
1.0
141
30.0
290
     0
  0
SCALE
  5
2404
102
{ACAD_REACTORS
330
23FA
102
}
330
23FA
100
AcDbScale
 70
     0
300
1:40
140
1.0
141
40.0
290
     0
  0
SCALE
  5
2405
102
{ACAD_REACTORS
330
23FA
102
}
330
23FA
100
AcDbScale
 70
     0
300
1:50
140
1.0
141
50.0
290
     0
  0
SCALE
  5
2406
102
{ACAD_REACTORS
330
23FA
102
}
330
23FA
100
AcDbScale
 70
     0
300
1:100
140
1.0
141
100.0
290
     0
  0
SCALE
  5
2407
102
{ACAD_REACTORS
330
23FA
102
}
330
23FA
100
AcDbScale
 70
     0
300
2:1
140
2.0
141
1.0
290
     0
  0
SCALE
  5
2408
102
{ACAD_REACTORS
330
23FA
102
}
330
23FA
100
AcDbScale
 70
     0
300
4:1
140
4.0
141
1.0
290
     0
  0
SCALE
  5
2409
102
{ACAD_REACTORS
330
23FA
102
}
330
23FA
100
AcDbScale
 70
     0
300
8:1
140
8.0
141
1.0
290
     0
  0
SCALE
  5
240A
102
{ACAD_REACTORS
330
23FA
102
}
330
23FA
100
AcDbScale
 70
     0
300
10:1
140
10.0
141
1.0
290
     0
  0
SCALE
  5
240B
102
{ACAD_REACTORS
330
23FA
102
}
330
23FA
100
AcDbScale
 70
     0
300
100:1
140
100.0
141
1.0
290
     0
  0
ACDBSECTIONVIEWSTYLE
  5
240F
102
{ACAD_XDICTIONARY
360
28A8
102
}
102
{ACAD_REACTORS
330
240E
102
}
330
240E
100
AcDbModelDocViewStyle
 70
     0
  3
Metric50
290
     0
100
AcDbSectionViewStyle
 70
     0
 71
     0
 90
      102
 71
     1
340
9
 40
5.0
340
0
340
0
 40
5.0
300
I, O, Q, S, X, Z
 40
10.0
 90
        0
 40
2.5
 90
        0
 71
     2
340
8
 90
       25
340
8
 90
       50
 40
5.0
 40
2.5
 40
5.0
 71
     3
340
9
 40
5.0
 90
        0
 40
15.0
 90
        1
300
%<\AcVar ViewSectionStartId>%-%<\AcVar ViewSectionEndId>% (%<\AcVar ViewScale \f "%sn">%)
 71
     4
300
ANSI31
 40
1.0
 90
        0
290
     0
290
     0
 90
        6
 40
0.0
 40
1.570796326794896
 40
0.2617993877991494
 40
1.308996938995747
 40
-0.2617993877991494
 40
1.832595714594046
  0
TABLESTYLE
  5
23F9
102
{ACAD_XDICTIONARY
360
242F
102
}
102
{ACAD_REACTORS
330
23F8
102
}
330
23F8
100
AcDbTableStyle
  3
Standard
 70
     0
 71
     0
 40
1.5
 41
1.5
280
     0
281
     0
  7
Standard
140
4.5
170
     2
 62
     0
 63
     7
283
     0
274
    -2
284
     1
 64
     0
275
    -2
285
     1
 65
     0
276
    -2
286
     1
 66
     0
277
    -2
287
     1
 67
     0
278
    -2
288
     1
 68
     0
279
    -2
289
     1
 69
     0
  7
Standard
140
6.0
170
     5
 62
     0
 63
     7
283
     0
274
    -2
284
     1
 64
     0
275
    -2
285
     1
 65
     0
276
    -2
286
     1
 66
     0
277
    -2
287
     1
 67
     0
278
    -2
288
     1
 68
     0
279
    -2
289
     1
 69
     0
  7
Standard
140
4.5
170
     5
 62
     0
 63
     7
283
     0
274
    -2
284
     1
 64
     0
275
    -2
285
     1
 65
     0
276
    -2
286
     1
 66
     0
277
    -2
287
     1
 67
     0
278
    -2
288
     1
 68
     0
279
    -2
289
     1
 69
     0
  0
VISUALSTYLE
  5
23E4
102
{ACAD_XDICTIONARY
360
287F
102
}
102
{ACAD_REACTORS
330
23DE
102
}
330
23DE
100
AcDbVisualStyle
  2
2dWireframe
 70
     4
 71
     0
 72
     2
 73
     0
 90
        0
 40
-0.6
 41
-30.0
 62
     5
 63
     7
 74
     1
 91
        4
 64
     7
 65
   257
 75
     1
175
     1
 42
1.0
 92
        0
 66
   257
 43
1.0
 76
     1
 77
     6
 78
     2
 67
     7
 79
     5
170
     0
171
     0
290
     0
174
     0
 93
        1
 44
0.0
173
     0
291
     0
 45
0.0
1001
ACAD
1000
AcDbSavedByObjectVersion
1070
     0
  0
VISUALSTYLE
  5
23E3
102
{ACAD_XDICTIONARY
360
287D
102
}
102
{ACAD_REACTORS
330
23DE
102
}
330
23DE
100
AcDbVisualStyle
  2
Basic
 70
     7
 71
     1
 72
     0
 73
     1
 90
        0
 40
-0.6
 41
-30.0
 62
     5
 63
     7
 74
     0
 91
        4
 64
     7
 65
   257
 75
     1
175
     1
 42
1.0
 92
        8
 66
     7
 43
1.0
 76
     1
 77
     6
 78
     2
 67
     7
 79
     5
170
     0
171
     0
290
     0
174
     0
 93
        1
 44
0.0
173
     0
291
     1
 45
0.0
1001
ACAD
1000
AcDbSavedByObjectVersion
1070
     0
  0
VISUALSTYLE
  5
23EA
102
{ACAD_XDICTIONARY
360
288B
102
}
102
{ACAD_REACTORS
330
23DE
102
}
330
23DE
100
AcDbVisualStyle
  2
Brighten
 70
    12
 71
     2
 72
     2
 73
     0
 90
        0
 40
-0.6
 41
-30.0
 62
     5
 63
     7
 74
     1
 91
        4
 64
     7
 65
   257
 75
     1
175
     1
 42
1.0
 92
        8
 66
     7
 43
1.0
 76
     1
 77
     6
 78
     2
 67
     7
 79
     5
170
     0
171
     0
290
     0
174
     0
 93
        1
 44
50.0
173
     0
291
     1
 45
0.0
1001
ACAD
1000
AcDbSavedByObjectVersion
1070
     0
  0
VISUALSTYLE
  5
23EE
102
{ACAD_XDICTIONARY
360
2893
102
}
102
{ACAD_REACTORS
330
23DE
102
}
330
23DE
100
AcDbVisualStyle
  2
ColorChange
 70
    16
 71
     2
 72
     2
 73
     3
 90
        0
 40
-0.6
 41
-30.0
 62
     5
 63
     8
 74
     1
 91
        4
 64
     7
 65
   257
 75
     1
175
     1
 42
1.0
 92
        8
 66
     8
 43
1.0
 76
     1
 77
     6
 78
     2
 67
     7
 79
     5
170
     0
171
     0
290
     0
174
     0
 93
        1
 44
0.0
173
     0
291
     1
 45
0.0
1001
ACAD
1000
AcDbSavedByObjectVersion
1070
     0
  0
VISUALSTYLE
  5
23E7
102
{ACAD_XDICTIONARY
360
2885
102
}
102
{ACAD_REACTORS
330
23DE
102
}
330
23DE
100
AcDbVisualStyle
  2
Conceptual
 70
     9
 71
     3
 72
     2
 73
     0
 90
        0
 40
-0.6
 41
-30.0
 62
     5
 63
     7
 74
     2
 91
        2
 64
     7
 65
   257
 75
     1
175
     1
 42
179.0
 92
        8
 66
     7
 43
1.0
 76
     1
 77
     6
 78
     2
 67
     7
 79
     3
170
     0
171
     0
290
     0
174
     0
 93
        1
 44
0.0
173
     0
291
     0
 45
0.0
1001
ACAD
1000
AcDbSavedByObjectVersion
1070
     0
  0
VISUALSTYLE
  5
23E9
102
{ACAD_XDICTIONARY
360
2889
102
}
102
{ACAD_REACTORS
330
23DE
102
}
330
23DE
100
AcDbVisualStyle
  2
Dim
 70
    11
 71
     2
 72
     2
 73
     0
 90
        0
 40
-0.6
 41
-30.0
 62
     5
 63
     7
 74
     1
 91
        4
 64
     7
 65
   257
 75
     1
175
     1
 42
1.0
 92
        8
 66
     7
 43
1.0
 76
     1
 77
     6
 78
     2
 67
     7
 79
     5
170
     0
171
     0
290
     0
174
     0
 93
        1
 44
-50.0
173
     0
291
     1
 45
0.0
1001
ACAD
1000
AcDbSavedByObjectVersion
1070
     0
  0
VISUALSTYLE
  5
23F6
102
{ACAD_XDICTIONARY
360
28A3
102
}
102
{ACAD_REACTORS
330
23DE
102
}
330
23DE
100
AcDbVisualStyle
  2
EdgeColorOff
 70
    22
 71
     2
 72
     2
 73
     0
 90
        0
 40
-0.6
 41
-30.0
 62
     5
 63
     7
 74
     1
 91
        4
 64
     7
 65
   257
 75
     1
175
     1
 42
1.0
 92
        8
 66
     7
 43
1.0
 76
     1
 77
     6
 78
     2
 67
     7
 79
     5
170
     0
171
     0
290
     0
174
     0
 93
        1
 44
0.0
173
     0
291
     1
 45
0.0
1001
ACAD
1000
AcDbSavedByObjectVersion
1070
     0
  0
VISUALSTYLE
  5
23ED
102
{ACAD_XDICTIONARY
360
2891
102
}
102
{ACAD_REACTORS
330
23DE
102
}
330
23DE
100
AcDbVisualStyle
  2
Facepattern
 70
    15
 71
     2
 72
     2
 73
     0
 90
        0
 40
-0.6
 41
-30.0
 62
     5
 63
     7
 74
     1
 91
        4
 64
     7
 65
   257
 75
     1
175
     1
 42
1.0
 92
        8
 66
     7
 43
1.0
 76
     1
 77
     6
 78
     2
 67
     7
 79
     5
170
     0
171
     0
290
     0
174
     0
 93
        1
 44
0.0
173
     0
291
     1
 45
0.0
1001
ACAD
1000
AcDbSavedByObjectVersion
1070
     0
  0
VISUALSTYLE
  5
23DF
102
{ACAD_XDICTIONARY
360
2875
102
}
102
{ACAD_REACTORS
330
23DE
102
}
330
23DE
100
AcDbVisualStyle
  2
Flat
 70
     0
 71
     2
 72
     1
 73
     1
 90
        2
 40
-0.6
 41
30.0
 62
     5
 63
     7
 74
     0
 91
        0
 64
     7
 65
   257
 75
     1
175
     1
 42
1.0
 92
        8
 66
     7
 43
1.0
 76
     1
 77
     6
 78
     2
 67
     7
 79
     5
170
     0
171
     0
290
     0
174
     0
 93
       13
 44
0.0
173
     0
291
     1
 45
0.0
1001
ACAD
1000
AcDbSavedByObjectVersion
1070
     0
  0
VISUALSTYLE
  5
23E0
102
{ACAD_XDICTIONARY
360
2877
102
}
102
{ACAD_REACTORS
330
23DE
102
}
330
23DE
100
AcDbVisualStyle
  2
FlatWithEdges
 70
     1
 71
     2
 72
     1
 73
     1
 90
        2
 40
-0.6
 41
30.0
 62
     5
 63
     7
 74
     1
 91
        0
 64
     7
 65
   257
 75
     1
175
     1
 42
1.0
 92
        0
 66
   257
 43
1.0
 76
     1
 77
     6
 78
     2
 67
     7
 79
     5
170
     0
171
     0
290
     0
174
     0
 93
       13
 44
0.0
173
     0
291
     1
 45
0.0
1001
ACAD
1000
AcDbSavedByObjectVersion
1070
     0
  0
VISUALSTYLE
  5
23E1
102
{ACAD_XDICTIONARY
360
2879
102
}
102
{ACAD_REACTORS
330
23DE
102
}
330
23DE
100
AcDbVisualStyle
  2
Gouraud
 70
     2
 71
     2
 72
     2
 73
     1
 90
        2
 40
-0.6
 41
30.0
 62
     5
 63
     7
 74
     0
 91
        0
 64
     7
 65
   257
 75
     1
175
     1
 42
1.0
 92
        0
 66
     7
 43
1.0
 76
     1
 77
     6
 78
     2
 67
     7
 79
     5
170
     0
171
     0
290
     0
174
     0
 93
       13
 44
0.0
173
     0
291
     1
 45
0.0
1001
ACAD
1000
AcDbSavedByObjectVersion
1070
     0
  0
VISUALSTYLE
  5
23E2
102
{ACAD_XDICTIONARY
360
287B
102
}
102
{ACAD_REACTORS
330
23DE
102
}
330
23DE
100
AcDbVisualStyle
  2
GouraudWithEdges
 70
     3
 71
     2
 72
     2
 73
     1
 90
        2
 40
-0.6
 41
30.0
 62
     5
 63
     7
 74
     1
 91
        0
 64
     7
 65
   257
 75
     1
175
     1
 42
1.0
 92
        0
 66
   257
 43
1.0
 76
     1
 77
     6
 78
     2
 67
     7
 79
     5
170
     0
171
     0
290
     0
174
     0
 93
       13
 44
0.0
173
     0
291
     1
 45
0.0
1001
ACAD
1000
AcDbSavedByObjectVersion
1070
     0
  0
VISUALSTYLE
  5
23E6
102
{ACAD_XDICTIONARY
360
2883
102
}
102
{ACAD_REACTORS
330
23DE
102
}
330
23DE
100
AcDbVisualStyle
  2
Hidden
 70
     6
 71
     1
 72
     2
 73
     2
 90
        0
 40
-0.6
 41
-30.0
 62
     5
 63
     7
 74
     2
 91
        2
 64
     7
 65
   257
 75
     2
175
     1
 42
40.0
 92
        0
 66
   257
 43
1.0
 76
     1
 77
     6
 78
     2
 67
     7
 79
     3
170
     0
171
     0
290
     0
174
     0
 93
        1
 44
0.0
173
     0
291
     0
 45
0.0
1001
ACAD
1000
AcDbSavedByObjectVersion
1070
     0
  0
VISUALSTYLE
  5
23F4
102
{ACAD_XDICTIONARY
360
289F
102
}
102
{ACAD_REACTORS
330
23DE
102
}
330
23DE
100
AcDbVisualStyle
  2
JitterOff
 70
    20
 71
     2
 72
     2
 73
     0
 90
        0
 40
-0.6
 41
-30.0
 62
     5
 63
     7
 74
     1
 91
        4
 64
     7
 65
   257
 75
     1
175
     1
 42
1.0
 92
       10
 66
     7
 43
1.0
 76
     1
 77
     6
 78
     2
 67
     7
 79
     5
170
     0
171
     0
290
     0
174
     0
 93
        1
 44
0.0
173
     0
291
     1
 45
0.0
1001
ACAD
1000
AcDbSavedByObjectVersion
1070
     0
  0
VISUALSTYLE
  5
23EC
102
{ACAD_XDICTIONARY
360
288F
102
}
102
{ACAD_REACTORS
330
23DE
102
}
330
23DE
100
AcDbVisualStyle
  2
Linepattern
 70
    14
 71
     2
 72
     2
 73
     0
 90
        0
 40
-0.6
 41
-30.0
 62
     5
 63
     7
 74
     1
 91
        4
 64
     7
 65
   257
 75
     7
175
     7
 42
1.0
 92
        8
 66
     7
 43
1.0
 76
     1
 77
     6
 78
     2
 67
     7
 79
     5
170
     0
171
     0
290
     0
174
     0
 93
        1
 44
0.0
173
     0
291
     1
 45
0.0
1001
ACAD
1000
AcDbSavedByObjectVersion
1070
     0
  0
VISUALSTYLE
  5
23F5
102
{ACAD_XDICTIONARY
360
28A1
102
}
102
{ACAD_REACTORS
330
23DE
102
}
330
23DE
100
AcDbVisualStyle
  2
OverhangOff
 70
    21
 71
     2
 72
     2
 73
     0
 90
        0
 40
-0.6
 41
-30.0
 62
     5
 63
     7
 74
     1
 91
        4
 64
     7
 65
   257
 75
     1
175
     1
 42
1.0
 92
        9
 66
     7
 43
1.0
 76
     1
 77
     6
 78
     2
 67
     7
 79
     5
170
     0
171
     0
290
     0
174
     0
 93
        1
 44
0.0
173
     0
291
     1
 45
0.0
1001
ACAD
1000
AcDbSavedByObjectVersion
1070
     0
  0
VISUALSTYLE
  5
23E8
102
{ACAD_XDICTIONARY
360
2887
102
}
102
{ACAD_REACTORS
330
23DE
102
}
330
23DE
100
AcDbVisualStyle
  2
Realistic
 70
     8
 71
     2
 72
     2
 73
     0
 90
        2
 40
-0.6
 41
30.0
 62
     5
 63
     7
 74
     0
 91
        0
 64
     7
 65
   257
 75
     1
175
     1
 42
1.0
 92
        8
 66
   257
 43
1.0
 76
     1
 77
     6
 78
     2
 67
     7
 79
     3
170
     0
171
     0
290
     0
174
     0
 93
       13
 44
0.0
173
     0
291
     0
 45
0.0
1001
ACAD
1000
AcDbSavedByObjectVersion
1070
     0
  0
VISUALSTYLE
  5
23F3
102
{ACAD_XDICTIONARY
360
289D
102
}
102
{ACAD_REACTORS
330
23DE
102
}
330
23DE
100
AcDbVisualStyle
  2
Shaded
 70
    27
 71
     2
 72
     2
 73
     1
 90
        2
 40
-0.6
 41
30.0
 62
     5
 63
     7
 74
     0
 91
        4
 64
     7
 65
   257
 75
     1
175
     1
 42
1.0
 92
        8
 66
   257
 43
1.0
 76
     1
 77
     6
 78
     2
 67
     8
 79
     3
170
     0
171
     0
290
     0
174
     0
 93
        5
 44
0.0
173
     0
291
     0
 45
0.0
1001
ACAD
1000
AcDbSavedByObjectVersion
1070
     0
  0
VISUALSTYLE
  5
23F2
102
{ACAD_XDICTIONARY
360
289B
102
}
102
{ACAD_REACTORS
330
23DE
102
}
330
23DE
100
AcDbVisualStyle
  2
Shaded with edges
 70
    26
 71
     2
 72
     2
 73
     1
 90
        2
 40
-0.6
 41
30.0
 62
     5
 63
     7
 74
     1
 91
       10
 64
     7
 65
   257
 75
     2
175
     1
 42
1.0
 92
        8
 66
   257
 43
1.0
 76
     1
 77
     6
 78
     2
 67
     7
 79
     3
170
     0
171
     0
290
     0
174
     0
 93
        5
 44
0.0
173
     0
291
     0
 45
0.0
1001
ACAD
1000
AcDbSavedByObjectVersion
1070
     0
  0
VISUALSTYLE
  5
23EF
102
{ACAD_XDICTIONARY
360
2895
102
}
102
{ACAD_REACTORS
330
23DE
102
}
330
23DE
100
AcDbVisualStyle
  2
Shades of Gray
 70
    23
 71
     2
 72
     2
 73
     3
 90
        0
 40
-0.6
 41
-30.0
 62
     5
 63
     7
 74
     2
 91
        2
 64
     7
 65
     7
 75
     1
175
     1
 42
40.0
 92
        8
 66
     7
 43
1.0
 76
     1
 77
     6
 78
     2
 67
     7
 79
     3
170
     0
171
     0
290
     0
174
     0
 93
        1
 44
0.0
173
     0
291
     0
 45
0.0
1001
ACAD
1000
AcDbSavedByObjectVersion
1070
     0
  0
VISUALSTYLE
  5
23F0
102
{ACAD_XDICTIONARY
360
2897
102
}
102
{ACAD_REACTORS
330
23DE
102
}
330
23DE
100
AcDbVisualStyle
  2
Sketchy
 70
    24
 71
     1
 72
     2
 73
     2
 90
        0
 40
-0.6
 41
-30.0
 62
     5
 63
     7
 74
     2
 91
        2
 64
     7
 65
     7
 75
     1
175
     1
 42
40.0
 92
       11
 66
     7
 43
1.0
 76
     1
 77
     6
 78
     2
 67
     7
 79
     6
170
     0
171
     0
290
     0
174
     0
 93
        1
 44
0.0
173
     0
291
     0
 45
0.0
1001
ACAD
1000
AcDbSavedByObjectVersion
1070
     0
  0
VISUALSTYLE
  5
23EB
102
{ACAD_XDICTIONARY
360
288D
102
}
102
{ACAD_REACTORS
330
23DE
102
}
330
23DE
100
AcDbVisualStyle
  2
Thicken
 70
    13
 71
     2
 72
     2
 73
     0
 90
        0
 40
-0.6
 41
-30.0
 62
     5
 63
     7
 74
     1
 91
        4
 64
     7
 65
   257
 75
     1
175
     1
 42
1.0
 92
       12
 66
     7
 43
1.0
 76
     1
 77
     6
 78
     2
 67
     7
 79
     5
170
     0
171
     0
290
     0
174
     0
 93
        1
 44
0.0
173
     0
291
     1
 45
0.0
1001
ACAD
1000
AcDbSavedByObjectVersion
1070
     0
  0
VISUALSTYLE
  5
23E5
102
{ACAD_XDICTIONARY
360
2881
102
}
102
{ACAD_REACTORS
330
23DE
102
}
330
23DE
100
AcDbVisualStyle
  2
Wireframe
 70
     5
 71
     0
 72
     2
 73
     0
 90
        0
 40
-0.6
 41
-30.0
 62
     5
 63
     7
 74
     1
 91
        4
 64
     7
 65
   257
 75
     1
175
     1
 42
1.0
 92
        0
 66
   257
 43
1.0
 76
     1
 77
     6
 78
     2
 67
     7
 79
     3
170
     0
171
     0
290
     0
174
     0
 93
        1
 44
0.0
173
     0
291
     0
 45
0.0
1001
ACAD
1000
AcDbSavedByObjectVersion
1070
     0
  0
VISUALSTYLE
  5
23F1
102
{ACAD_XDICTIONARY
360
2899
102
}
102
{ACAD_REACTORS
330
23DE
102
}
330
23DE
100
AcDbVisualStyle
  2
X-Ray
 70
    25
 71
     2
 72
     2
 73
     1
 90
        1
 40
0.5
 41
-30.0
 62
     5
 63
     7
 74
     1
 91
        0
 64
     7
 65
   257
 75
     1
175
     1
 42
1.0
 92
        8
 66
     7
 43
1.0
 76
     1
 77
     6
 78
     2
 67
     7
 79
     3
170
     0
171
     0
290
     0
174
     0
 93
       13
 44
0.0
173
     0
291
     0
 45
0.0
1001
ACAD
1000
AcDbSavedByObjectVersion
1070
     0
  0
DICTIONARYVAR
  5
247B
102
{ACAD_REACTORS
330
2476
102
}
330
2476
100
DictionaryVariables
280
     0
  1
1:1
  0
DICTIONARYVAR
  5
2478
102
{ACAD_REACTORS
330
2476
102
}
330
2476
100
DictionaryVariables
280
     0
  1
STANDARD
  0
DICTIONARYVAR
  5
2477
102
{ACAD_REACTORS
330
2476
102
}
330
2476
100
DictionaryVariables
280
     0
  1
STANDARD
  0
DICTIONARYVAR
  5
2479
102
{ACAD_REACTORS
330
2476
102
}
330
2476
100
DictionaryVariables
280
     0
  1
Metric50
  0
DICTIONARYVAR
  5
247A
102
{ACAD_REACTORS
330
2476
102
}
330
2476
100
DictionaryVariables
280
     0
  1
Metric50
  0
DICTIONARYVAR
  5
247E
102
{ACAD_REACTORS
330
2476
102
}
330
2476
100
DictionaryVariables
280
     0
  1
1
  0
DICTIONARYVAR
  5
247D
102
{ACAD_REACTORS
330
2476
102
}
330
2476
100
DictionaryVariables
280
     0
  1
0
  0
DICTIONARYVAR
  5
247C
102
{ACAD_REACTORS
330
2476
102
}
330
2476
100
DictionaryVariables
280
     0
  1
127
  0
DICTIONARYVAR
  5
2868
102
{ACAD_REACTORS
330
2476
102
}
330
2476
100
DictionaryVariables
280
     0
  1
2
  0
XRECORD
  5
25BE
102
{ACAD_XDICTIONARY
360
25BF
102
}
102
{ACAD_REACTORS
330
2490
102
}
330
2490
100
AcDbXrecord
280
     1
 91
      535
301

290
     0
302
本体
330
2380
 90
        8
 62
   112
370
    13
331
8
  1
色_112
440
        0
330
2370
 90
        8
 62
     1
370
     5
331
13A
  1
色_1
440
        0
330
236B
 90
        8
 62
   112
370
    13
331
F1
  1
色_112
440
        0
330
0
 90
        8
 62
     3
370
     9
331
8
  1
色_3
440
        0
330
CE
 90
        0
 62
     7
370
    -3
331
8
  1
色_7
440
        0
330
11
 90
        8
 62
     7
370
    -3
331
8
  1
色_7
440
        0
330
7CC
 90
        8
 62
     4
370
     5
331
8
  1
色_4
440
        0
330
0
 90
        8
 62
    31
370
     9
331
8
  1
色_31
440
        0
330
4
 90
        8
 62
     2
370
     9
331
8
  1
色_2
440
        0
330
80
 90
        8
 62
     7
370
    13
331
8
  1
色_7
440
        0
330
76
 90
        8
 62
     7
370
    -3
331
8
  1
色_7
440
        0
  0
ACDBASSOCNETWORK
  5
25D1
102
{ACAD_REACTORS
330
25D0
102
}
330
25D0
100
AcDbAssocAction
 90
        1
 90
        1
330
25D3
360
0
 90
        1
 90
        0
 90
        0
100
AcDbAssocNetwork
 90
        0
 90
        2
 90
        2
360
25D4
360
275C
 90
        2
330
25D4
330
275C
  0
XRECORD
  5
28AD
102
{ACAD_REACTORS
330
28AC
102
}
330
28AC
100
AcDbXrecord
280
     1
1070
     0
1070
     1
1070
     1
  0
XRECORD
  5
28AF
102
{ACAD_REACTORS
330
28AE
102
}
330
28AE
100
AcDbXrecord
280
     1
1070
     0
1070
     1
1070
     1
  0
DICTIONARY
  5
28AA
330
2411
100
AcDbDictionary
280
     1
281
     1
  3
ACAD_XREC_ROUNDTRIP
360
28AB
  0
DICTIONARY
  5
286E
330
1FA4
100
AcDbDictionary
280
     1
281
     1
  3
ACAD_XREC_ROUNDTRIP
360
286F
  0
DICTIONARY
  5
2870
330
1FAA
100
AcDbDictionary
280
     1
281
     1
  3
ACAD_XREC_ROUNDTRIP
360
2871
  0
DICTIONARY
  5
286C
330
1F9D
100
AcDbDictionary
280
     1
281
     1
  3
ACAD_XREC_ROUNDTRIP
360
286D
  0
DICTIONARY
  5
23CF
330
23CE
100
AcDbDictionary
280
     1
281
     1
  3
ACAD_XREC_ROUNDTRIP
360
2873
  3
BUMPTILE
360
23D1
  3
DIFFUSETILE
360
23D0
  3
OPACITYTILE
360
23D4
  3
REFLECTIONTILE
360
23D3
  3
REFRACTIONTILE
360
23D5
  3
SPECULARTILE
360
23D2
  0
DICTIONARY
  5
23C7
330
23C6
100
AcDbDictionary
280
     1
281
     1
  3
ACAD_XREC_ROUNDTRIP
360
2872
  3
BUMPTILE
360
23C9
  3
DIFFUSETILE
360
23C8
  3
OPACITYTILE
360
23CC
  3
REFLECTIONTILE
360
23CB
  3
REFRACTIONTILE
360
23CD
  3
SPECULARTILE
360
23CA
  0
DICTIONARY
  5
23D7
330
23D6
100
AcDbDictionary
280
     1
281
     1
  3
ACAD_XREC_ROUNDTRIP
360
2874
  3
BUMPTILE
360
23D9
  3
DIFFUSETILE
360
23D8
  3
OPACITYTILE
360
23DC
  3
REFLECTIONTILE
360
23DB
  3
REFRACTIONTILE
360
23DD
  3
SPECULARTILE
360
23DA
  0
DICTIONARY
  5
28A6
330
240D
100
AcDbDictionary
280
     1
281
     1
  3
ACAD_XREC_ROUNDTRIP
360
28A7
  0
DICTIONARY
  5
28A8
330
240F
100
AcDbDictionary
280
     1
281
     1
  3
ACAD_XREC_ROUNDTRIP
360
28A9
  0
DICTIONARY
  5
242F
330
23F9
100
AcDbDictionary
280
     1
281
     1
  3
ACAD_ROUNDTRIP_2008_TABLESTYLE_CELLSTYLEMAP
360
2869
  3
ACAD_XREC_ROUNDTRIP
360
28A5
  0
DICTIONARY
  5
287F
330
23E4
100
AcDbDictionary
280
     1
281
     1
  3
ACAD_XREC_ROUNDTRIP
360
2880
  0
DICTIONARY
  5
287D
330
23E3
100
AcDbDictionary
280
     1
281
     1
  3
ACAD_XREC_ROUNDTRIP
360
287E
  0
DICTIONARY
  5
288B
330
23EA
100
AcDbDictionary
280
     1
281
     1
  3
ACAD_XREC_ROUNDTRIP
360
288C
  0
DICTIONARY
  5
2893
330
23EE
100
AcDbDictionary
280
     1
281
     1
  3
ACAD_XREC_ROUNDTRIP
360
2894
  0
DICTIONARY
  5
2885
330
23E7
100
AcDbDictionary
280
     1
281
     1
  3
ACAD_XREC_ROUNDTRIP
360
2886
  0
DICTIONARY
  5
2889
330
23E9
100
AcDbDictionary
280
     1
281
     1
  3
ACAD_XREC_ROUNDTRIP
360
288A
  0
DICTIONARY
  5
28A3
330
23F6
100
AcDbDictionary
280
     1
281
     1
  3
ACAD_XREC_ROUNDTRIP
360
28A4
  0
DICTIONARY
  5
2891
330
23ED
100
AcDbDictionary
280
     1
281
     1
  3
ACAD_XREC_ROUNDTRIP
360
2892
  0
DICTIONARY
  5
2875
330
23DF
100
AcDbDictionary
280
     1
281
     1
  3
ACAD_XREC_ROUNDTRIP
360
2876
  0
DICTIONARY
  5
2877
330
23E0
100
AcDbDictionary
280
     1
281
     1
  3
ACAD_XREC_ROUNDTRIP
360
2878
  0
DICTIONARY
  5
2879
330
23E1
100
AcDbDictionary
280
     1
281
     1
  3
ACAD_XREC_ROUNDTRIP
360
287A
  0
DICTIONARY
  5
287B
330
23E2
100
AcDbDictionary
280
     1
281
     1
  3
ACAD_XREC_ROUNDTRIP
360
287C
  0
DICTIONARY
  5
2883
330
23E6
100
AcDbDictionary
280
     1
281
     1
  3
ACAD_XREC_ROUNDTRIP
360
2884
  0
DICTIONARY
  5
289F
330
23F4
100
AcDbDictionary
280
     1
281
     1
  3
ACAD_XREC_ROUNDTRIP
360
28A0
  0
DICTIONARY
  5
288F
330
23EC
100
AcDbDictionary
280
     1
281
     1
  3
ACAD_XREC_ROUNDTRIP
360
2890
  0
DICTIONARY
  5
28A1
330
23F5
100
AcDbDictionary
280
     1
281
     1
  3
ACAD_XREC_ROUNDTRIP
360
28A2
  0
DICTIONARY
  5
2887
330
23E8
100
AcDbDictionary
280
     1
281
     1
  3
ACAD_XREC_ROUNDTRIP
360
2888
  0
DICTIONARY
  5
289D
330
23F3
100
AcDbDictionary
280
     1
281
     1
  3
ACAD_XREC_ROUNDTRIP
360
289E
  0
DICTIONARY
  5
289B
330
23F2
100
AcDbDictionary
280
     1
281
     1
  3
ACAD_XREC_ROUNDTRIP
360
289C
  0
DICTIONARY
  5
2895
330
23EF
100
AcDbDictionary
280
     1
281
     1
  3
ACAD_XREC_ROUNDTRIP
360
2896
  0
DICTIONARY
  5
2897
330
23F0
100
AcDbDictionary
280
     1
281
     1
  3
ACAD_XREC_ROUNDTRIP
360
2898
  0
DICTIONARY
  5
288D
330
23EB
100
AcDbDictionary
280
     1
281
     1
  3
ACAD_XREC_ROUNDTRIP
360
288E
  0
DICTIONARY
  5
2881
330
23E5
100
AcDbDictionary
280
     1
281
     1
  3
ACAD_XREC_ROUNDTRIP
360
2882
  0
DICTIONARY
  5
2899
330
23F1
100
AcDbDictionary
280
     1
281
     1
  3
ACAD_XREC_ROUNDTRIP
360
289A
  0
DICTIONARY
  5
25BF
330
25BE
100
AcDbDictionary
280
     1
281
     1
  3
AcadLayerStateAnnoScale
360
25C0
  0
ACDBASSOCACTION
  5
25D4
330
25D1
100
AcDbAssocAction
 90
        1
 90
        1
330
25D1
360
25D5
 90
        1
 90
        3
 90
        3
360
25D8
360
25D9
360
25DA
  0
ACDBASSOCACTION
  5
275C
330
25D1
100
AcDbAssocAction
 90
        1
 90
        1
330
25D1
360
275D
 90
        2
 90
        3
 90
        3
360
2760
360
2761
360
2762
  0
XRECORD
  5
28AB
102
{ACAD_REACTORS
330
28AA
102
}
330
28AA
100
AcDbXrecord
280
     1
102
DISPLAYNAME
  1
Metric50
102
FLAGS
 90
        0
  0
XRECORD
  5
286F
102
{ACAD_REACTORS
330
286E
102
}
330
286E
100
AcDbXrecord
280
     1
102
SHADEPLOT
 70
     0
102
SHADEPLOTRESLEVEL
 70
     2
102
SHADEPLOTCUSTOMDPI
 70
   300
  0
XRECORD
  5
2871
102
{ACAD_REACTORS
330
2870
102
}
330
2870
100
AcDbXrecord
280
     1
102
SHADEPLOT
 70
     0
102
SHADEPLOTRESLEVEL
 70
     2
102
SHADEPLOTCUSTOMDPI
 70
   300
  0
XRECORD
  5
286D
102
{ACAD_REACTORS
330
286C
102
}
330
286C
100
AcDbXrecord
280
     1
102
SHADEPLOT
 70
     0
102
SHADEPLOTRESLEVEL
 70
     2
102
SHADEPLOTCUSTOMDPI
 70
   300
  0
XRECORD
  5
2873
102
{ACAD_REACTORS
330
23CF
102
}
330
23CF
100
AcDbXrecord
280
     1
102
MATERIAL
148
0.0
149
0.0
149
0.0
 93
        0
 94
      127
282
     0
 72
     0
 77
     0
171
     0
175
     0
179
     0
273
     0
  0
XRECORD
  5
23D1
102
{ACAD_REACTORS
330
23CF
102
}
330
23CF
100
AcDbXrecord
280
     1
270
     1
271
     1
  0
XRECORD
  5
23D0
102
{ACAD_REACTORS
330
23CF
102
}
330
23CF
100
AcDbXrecord
280
     1
270
     1
271
     1
  0
XRECORD
  5
23D4
102
{ACAD_REACTORS
330
23CF
102
}
330
23CF
100
AcDbXrecord
280
     1
270
     1
271
     1
  0
XRECORD
  5
23D3
102
{ACAD_REACTORS
330
23CF
102
}
330
23CF
100
AcDbXrecord
280
     1
270
     1
271
     1
  0
XRECORD
  5
23D5
102
{ACAD_REACTORS
330
23CF
102
}
330
23CF
100
AcDbXrecord
280
     1
270
     1
271
     1
  0
XRECORD
  5
23D2
102
{ACAD_REACTORS
330
23CF
102
}
330
23CF
100
AcDbXrecord
280
     1
270
     1
271
     1
  0
XRECORD
  5
2872
102
{ACAD_REACTORS
330
23C7
102
}
330
23C7
100
AcDbXrecord
280
     1
102
MATERIAL
148
0.0
149
0.0
149
0.0
 93
        0
 94
      127
282
     0
 72
     0
 77
     0
171
     0
175
     0
179
     0
273
     0
  0
XRECORD
  5
23C9
102
{ACAD_REACTORS
330
23C7
102
}
330
23C7
100
AcDbXrecord
280
     1
270
     1
271
     1
  0
XRECORD
  5
23C8
102
{ACAD_REACTORS
330
23C7
102
}
330
23C7
100
AcDbXrecord
280
     1
270
     1
271
     1
  0
XRECORD
  5
23CC
102
{ACAD_REACTORS
330
23C7
102
}
330
23C7
100
AcDbXrecord
280
     1
270
     1
271
     1
  0
XRECORD
  5
23CB
102
{ACAD_REACTORS
330
23C7
102
}
330
23C7
100
AcDbXrecord
280
     1
270
     1
271
     1
  0
XRECORD
  5
23CD
102
{ACAD_REACTORS
330
23C7
102
}
330
23C7
100
AcDbXrecord
280
     1
270
     1
271
     1
  0
XRECORD
  5
23CA
102
{ACAD_REACTORS
330
23C7
102
}
330
23C7
100
AcDbXrecord
280
     1
270
     1
271
     1
  0
XRECORD
  5
2874
102
{ACAD_REACTORS
330
23D7
102
}
330
23D7
100
AcDbXrecord
280
     1
102
MATERIAL
148
0.0
149
0.0
149
0.0
 93
        0
 94
      127
282
     0
 72
     0
 77
     0
171
     0
175
     0
179
     0
273
     0
  0
XRECORD
  5
23D9
102
{ACAD_REACTORS
330
23D7
102
}
330
23D7
100
AcDbXrecord
280
     1
270
     1
271
     1
  0
XRECORD
  5
23D8
102
{ACAD_REACTORS
330
23D7
102
}
330
23D7
100
AcDbXrecord
280
     1
270
     1
271
     1
  0
XRECORD
  5
23DC
102
{ACAD_REACTORS
330
23D7
102
}
330
23D7
100
AcDbXrecord
280
     1
270
     1
271
     1
  0
XRECORD
  5
23DB
102
{ACAD_REACTORS
330
23D7
102
}
330
23D7
100
AcDbXrecord
280
     1
270
     1
271
     1
  0
XRECORD
  5
23DD
102
{ACAD_REACTORS
330
23D7
102
}
330
23D7
100
AcDbXrecord
280
     1
270
     1
271
     1
  0
XRECORD
  5
23DA
102
{ACAD_REACTORS
330
23D7
102
}
330
23D7
100
AcDbXrecord
280
     1
270
     1
271
     1
  0
XRECORD
  5
28A7
102
{ACAD_REACTORS
330
28A6
102
}
330
28A6
100
AcDbXrecord
280
     1
102
ACAD_ROUNDTRIP_2012_MLEADER_STYLE
298
     1
  0
XRECORD
  5
28A9
102
{ACAD_REACTORS
330
28A8
102
}
330
28A8
100
AcDbXrecord
280
     1
102
DISPLAYNAME
  1
Metric50
102
FLAGS
 90
        0
  0
CELLSTYLEMAP
  5
2869
102
{ACAD_REACTORS
330
242F
102
}
330
242F
100
AcDbCellStyleMap
 90
        3
300
CELLSTYLE
  1
TABLEFORMAT_BEGIN
 90
        5
170
     1
 91
        0
 92
    32768
 62
   257
 93
        1
300
CONTENTFORMAT
  1
CONTENTFORMAT_BEGIN
 90
        0
 91
        0
 92
      512
 93
        0
300

 40
0.0
140
1.0
 94
        5
 62
     0
340
9
144
6.0
309
CONTENTFORMAT_END
171
     1
301
MARGIN
  1
CELLMARGIN_BEGIN
 40
1.5
 40
1.5
 40
1.5
 40
1.5
 40
4.5
 40
4.5
309
CELLMARGIN_END
 94
        6
 95
        1
302
GRIDFORMAT
  1
GRIDFORMAT_BEGIN
 90
        0
 91
        1
 62
     0
 92
       -2
340
0
 93
        0
 40
1.125
309
GRIDFORMAT_END
 95
        2
302
GRIDFORMAT
  1
GRIDFORMAT_BEGIN
 90
        0
 91
        1
 62
     0
 92
       -2
340
0
 93
        0
 40
1.125
309
GRIDFORMAT_END
 95
        4
302
GRIDFORMAT
  1
GRIDFORMAT_BEGIN
 90
        0
 91
        1
 62
     0
 92
       -2
340
0
 93
        0
 40
1.125
309
GRIDFORMAT_END
 95
        8
302
GRIDFORMAT
  1
GRIDFORMAT_BEGIN
 90
        0
 91
        1
 62
     0
 92
       -2
340
0
 93
        0
 40
1.125
309
GRIDFORMAT_END
 95
       16
302
GRIDFORMAT
  1
GRIDFORMAT_BEGIN
 90
        0
 91
        1
 62
     0
 92
       -2
340
0
 93
        0
 40
1.125
309
GRIDFORMAT_END
 95
       32
302
GRIDFORMAT
  1
GRIDFORMAT_BEGIN
 90
        0
 91
        1
 62
     0
 92
       -2
340
0
 93
        0
 40
1.125
309
GRIDFORMAT_END
309
TABLEFORMAT_END
  1
CELLSTYLE_BEGIN
 90
        1
 91
        1
300
_TITLE
309
CELLSTYLE_END
300
CELLSTYLE
  1
TABLEFORMAT_BEGIN
 90
        5
170
     1
 91
        0
 92
        0
 62
   257
 93
        1
300
CONTENTFORMAT
  1
CONTENTFORMAT_BEGIN
 90
        0
 91
        0
 92
      512
 93
        0
300

 40
0.0
140
1.0
 94
        5
 62
     0
340
9
144
4.5
309
CONTENTFORMAT_END
171
     1
301
MARGIN
  1
CELLMARGIN_BEGIN
 40
1.5
 40
1.5
 40
1.5
 40
1.5
 40
4.5
 40
4.5
309
CELLMARGIN_END
 94
        6
 95
        1
302
GRIDFORMAT
  1
GRIDFORMAT_BEGIN
 90
        0
 91
        1
 62
     0
 92
       -2
340
0
 93
        0
 40
1.125
309
GRIDFORMAT_END
 95
        2
302
GRIDFORMAT
  1
GRIDFORMAT_BEGIN
 90
        0
 91
        1
 62
     0
 92
       -2
340
0
 93
        0
 40
1.125
309
GRIDFORMAT_END
 95
        4
302
GRIDFORMAT
  1
GRIDFORMAT_BEGIN
 90
        0
 91
        1
 62
     0
 92
       -2
340
0
 93
        0
 40
1.125
309
GRIDFORMAT_END
 95
        8
302
GRIDFORMAT
  1
GRIDFORMAT_BEGIN
 90
        0
 91
        1
 62
     0
 92
       -2
340
0
 93
        0
 40
1.125
309
GRIDFORMAT_END
 95
       16
302
GRIDFORMAT
  1
GRIDFORMAT_BEGIN
 90
        0
 91
        1
 62
     0
 92
       -2
340
0
 93
        0
 40
1.125
309
GRIDFORMAT_END
 95
       32
302
GRIDFORMAT
  1
GRIDFORMAT_BEGIN
 90
        0
 91
        1
 62
     0
 92
       -2
340
0
 93
        0
 40
1.125
309
GRIDFORMAT_END
309
TABLEFORMAT_END
  1
CELLSTYLE_BEGIN
 90
        2
 91
        1
300
_HEADER
309
CELLSTYLE_END
300
CELLSTYLE
  1
TABLEFORMAT_BEGIN
 90
        5
170
     1
 91
        0
 92
        0
 62
   257
 93
        1
300
CONTENTFORMAT
  1
CONTENTFORMAT_BEGIN
 90
        0
 91
        0
 92
      512
 93
        0
300

 40
0.0
140
1.0
 94
        2
 62
     0
340
9
144
4.5
309
CONTENTFORMAT_END
171
     1
301
MARGIN
  1
CELLMARGIN_BEGIN
 40
1.5
 40
1.5
 40
1.5
 40
1.5
 40
4.5
 40
4.5
309
CELLMARGIN_END
 94
        6
 95
        1
302
GRIDFORMAT
  1
GRIDFORMAT_BEGIN
 90
        0
 91
        1
 62
     0
 92
       -2
340
0
 93
        0
 40
1.125
309
GRIDFORMAT_END
 95
        2
302
GRIDFORMAT
  1
GRIDFORMAT_BEGIN
 90
        0
 91
        1
 62
     0
 92
       -2
340
0
 93
        0
 40
1.125
309
GRIDFORMAT_END
 95
        4
302
GRIDFORMAT
  1
GRIDFORMAT_BEGIN
 90
        0
 91
        1
 62
     0
 92
       -2
340
0
 93
        0
 40
1.125
309
GRIDFORMAT_END
 95
        8
302
GRIDFORMAT
  1
GRIDFORMAT_BEGIN
 90
        0
 91
        1
 62
     0
 92
       -2
340
0
 93
        0
 40
1.125
309
GRIDFORMAT_END
 95
       16
302
GRIDFORMAT
  1
GRIDFORMAT_BEGIN
 90
        0
 91
        1
 62
     0
 92
       -2
340
0
 93
        0
 40
1.125
309
GRIDFORMAT_END
 95
       32
302
GRIDFORMAT
  1
GRIDFORMAT_BEGIN
 90
        0
 91
        1
 62
     0
 92
       -2
340
0
 93
        0
 40
1.125
309
GRIDFORMAT_END
309
TABLEFORMAT_END
  1
CELLSTYLE_BEGIN
 90
        3
 91
        2
300
_DATA
309
CELLSTYLE_END
  0
XRECORD
  5
28A5
102
{ACAD_REACTORS
330
242F
102
}
330
242F
100
AcDbXrecord
280
     1
102
ACAD_ROUNDTRIP_PRE2007_TABLESTYLE
 90
      512
 91
        0
  1

 92
      512
 93
        0
  2

 94
      512
 95
        0
  3

  0
XRECORD
  5
2880
102
{ACAD_REACTORS
330
287F
102
}
330
287F
100
AcDbXrecord
280
     1
102
RTVSPost2010Prop28
280
     1
102
RTVSPost2010PropOp28
 70
     1
102
RTVSPost2010Prop29
280
     1
102
RTVSPost2010PropOp29
 70
     1
102
RTVSPost2010Prop30
280
     0
102
RTVSPost2010PropOp30
 70
     1
102
RTVSPost2010Prop31
280
     0
102
RTVSPost2010PropOp31
 70
     1
102
RTVSPost2010Prop32
280
     0
102
RTVSPost2010PropOp32
 70
     1
102
RTVSPost2010Prop33
280
     0
102
RTVSPost2010PropOp33
 70
     1
102
RTVSPost2010Prop34
280
     0
102
RTVSPost2010PropOp34
 70
     1
102
RTVSPost2010Prop35
280
     0
102
RTVSPost2010PropOp35
 70
     1
102
RTVSPost2010Prop36
280
     0
102
RTVSPost2010PropOp36
 70
     1
102
RTVSPost2010Prop37
 90
       50
102
RTVSPost2010PropOp37
 70
     1
102
RTVSPost2010Prop38
140
0.0
102
RTVSPost2010PropOp38
 70
     1
102
RTVSPost2010Prop39
140
1.0
102
RTVSPost2010PropOp39
 70
     1
102
RTVSPost2010Prop40
 90
        0
102
RTVSPost2010PropOp40
 70
     1
102
RTVSPost2010Prop41ColorIndex
 90
       18
102
RTVSPost2010Prop41ColorRGB
 90
        0
102
RTVSPost2010PropOp41
 70
     1
102
RTVSPost2010Prop42
 90
       50
102
RTVSPost2010PropOp42
 70
     1
102
RTVSPost2010Prop43
 90
        3
102
RTVSPost2010PropOp43
 70
     1
102
RTVSPost2010Prop44ColorIndex
 90
        5
102
RTVSPost2010Prop44ColorRGB
 90
      255
102
RTVSPost2010PropOp44
 70
     1
102
RTVSPost2010Prop45
280
     0
102
RTVSPost2010PropOp45
 70
     1
102
RTVSPost2010Prop46
 90
       50
102
RTVSPost2010PropOp46
 70
     1
102
RTVSPost2010Prop47
 90
       50
102
RTVSPost2010PropOp47
 70
     1
102
RTVSPost2010Prop48
 90
       50
102
RTVSPost2010PropOp48
 70
     1
102
RTVSPost2010Prop49
280
     0
102
RTVSPost2010PropOp49
 70
     1
102
RTVSPost2010Prop50
 90
       50
102
RTVSPost2010PropOp50
 70
     1
102
RTVSPost2010Prop51ColorIndex
 90
      256
102
RTVSPost2010Prop51ColorRGB
 90
-16777216
102
RTVSPost2010PropOp51
 70
     0
102
RTVSPost2010Prop52
140
1.0
102
RTVSPost2010PropOp52
 70
     0
102
RTVSPost2010Prop53
 90
        2
102
RTVSPost2010PropOp53
 70
     1
102
RTVSPost2010Prop54
  1
strokes_ogs.tif
102
RTVSPost2010PropOp54
 70
     1
102
RTVSPost2010Prop55
280
     0
102
RTVSPost2010PropOp55
 70
     1
102
RTVSPost2010Prop56
140
1.0
102
RTVSPost2010PropOp56
 70
     1
102
RTVSPost2010Prop57
140
1.0
102
RTVSPost2010PropOp57
 70
     1
102
RTVSPropertyOp0
 70
     1
102
RTVSPropertyOp1
 70
     1
102
RTVSPropertyOp2
 70
     1
102
RTVSPropertyOp3
 70
     1
102
RTVSPropertyOp4
 70
     1
102
RTVSPropertyOp5
 70
     1
102
RTVSPropertyOp6
 70
     1
102
RTVSPropertyOp7
 70
     1
102
RTVSPropertyOp8
 70
     1
102
RTVSPropertyOp9
 70
     1
102
RTVSPropertyOp10
 70
     1
102
RTVSPropertyOp11
 70
     1
102
RTVSPropertyOp12
 70
     1
102
RTVSPropertyOp13
 70
     1
102
RTVSPropertyOp14
 70
     1
102
RTVSPropertyOp15
 70
     1
102
RTVSPropertyOp16
 70
     1
102
RTVSPropertyOp17
 70
     1
102
RTVSPropertyOp18
 70
     1
102
RTVSPropertyOp19
 70
     1
102
RTVSPropertyOp20
 70
     1
102
RTVSPropertyOp21
 70
     1
102
RTVSPropertyOp22
 70
     1
102
RTVSPropertyOp23
 70
     1
102
RTVSPropertyOp24
 70
     1
102
RTVSPropertyOp25
 70
     1
102
RTVSPropertyOp26
 70
     1
102
RTVSPropertyOp27
 70
     1
102
RTVSPropertyOp28
 70
     1
102
RTVSPropertyOp29
 70
     1
102
RTVSPropertyOp30
 70
     1
102
RTVSPropertyOp31
 70
     1
102
RTVSPropertyOp32
 70
     1
102
RTVSPropertyOp33
 70
     1
102
RTVSPropertyOp34
 70
     1
102
RTVSPropertyOp35
 70
     1
102
RTVSPropertyOp36
 70
     1
102
RTVSPropertyOp37
 70
     1
102
RTVSPropertyOp38
 70
     1
102
RTVSPropertyOp39
 70
     1
102
RTVSPropertyOp40
 70
     1
102
RTVSPropertyOp41
 70
     1
102
RTVSPropertyOp42
 70
     1
102
RTVSPropertyOp43
 70
     1
102
RTVSPropertyOp44
 70
     1
102
RTVSPropertyOp45
 70
     1
102
RTVSPropertyOp46
 70
     1
102
RTVSPropertyOp47
 70
     1
102
RTVSPropertyOp48
 70
     1
102
RTVSPropertyOp49
 70
     1
102
RTVSPropertyOp50
 70
     1
102
RTVSPropertyOp51
 70
     0
102
RTVSPropertyOp52
 70
     0
102
RTVSPropertyOp53
 70
     1
102
RTVSPropertyOp54
 70
     1
102
RTVSPropertyOp55
 70
     1
102
RTVSPropertyOp56
 70
     1
102
RTVSPropertyOp57
 70
     1
102
RTVSPropertyOp58
 70
     1
102
RTVSPropertyOp59
 70
     1
102
RTVSPropertyOp60
 70
     1
102
RTVSPropertyOp61
 70
     1
102
RTVSPropertyOp62
 70
     1
  0
XRECORD
  5
287E
102
{ACAD_REACTORS
330
287D
102
}
330
287D
100
AcDbXrecord
280
     1
102
RTVSPost2010Prop28
280
     0
102
RTVSPost2010PropOp28
 70
     1
102
RTVSPost2010Prop29
280
     1
102
RTVSPost2010PropOp29
 70
     1
102
RTVSPost2010Prop30
280
     1
102
RTVSPost2010PropOp30
 70
     1
102
RTVSPost2010Prop31
280
     0
102
RTVSPost2010PropOp31
 70
     1
102
RTVSPost2010Prop32
280
     0
102
RTVSPost2010PropOp32
 70
     1
102
RTVSPost2010Prop33
280
     0
102
RTVSPost2010PropOp33
 70
     1
102
RTVSPost2010Prop34
280
     0
102
RTVSPost2010PropOp34
 70
     1
102
RTVSPost2010Prop35
280
     0
102
RTVSPost2010PropOp35
 70
     1
102
RTVSPost2010Prop36
280
     0
102
RTVSPost2010PropOp36
 70
     1
102
RTVSPost2010Prop37
 90
       50
102
RTVSPost2010PropOp37
 70
     1
102
RTVSPost2010Prop38
140
0.0
102
RTVSPost2010PropOp38
 70
     1
102
RTVSPost2010Prop39
140
1.0
102
RTVSPost2010PropOp39
 70
     1
102
RTVSPost2010Prop40
 90
        0
102
RTVSPost2010PropOp40
 70
     1
102
RTVSPost2010Prop41ColorIndex
 90
       18
102
RTVSPost2010Prop41ColorRGB
 90
        0
102
RTVSPost2010PropOp41
 70
     1
102
RTVSPost2010Prop42
 90
       50
102
RTVSPost2010PropOp42
 70
     1
102
RTVSPost2010Prop43
 90
        3
102
RTVSPost2010PropOp43
 70
     1
102
RTVSPost2010Prop44ColorIndex
 90
        5
102
RTVSPost2010Prop44ColorRGB
 90
      255
102
RTVSPost2010PropOp44
 70
     1
102
RTVSPost2010Prop45
280
     0
102
RTVSPost2010PropOp45
 70
     1
102
RTVSPost2010Prop46
 90
       50
102
RTVSPost2010PropOp46
 70
     1
102
RTVSPost2010Prop47
 90
       50
102
RTVSPost2010PropOp47
 70
     1
102
RTVSPost2010Prop48
 90
       50
102
RTVSPost2010PropOp48
 70
     1
102
RTVSPost2010Prop49
280
     0
102
RTVSPost2010PropOp49
 70
     1
102
RTVSPost2010Prop50
 90
       50
102
RTVSPost2010PropOp50
 70
     1
102
RTVSPost2010Prop51ColorIndex
 90
      256
102
RTVSPost2010Prop51ColorRGB
 90
-16777216
102
RTVSPost2010PropOp51
 70
     0
102
RTVSPost2010Prop52
140
1.0
102
RTVSPost2010PropOp52
 70
     0
102
RTVSPost2010Prop53
 90
        2
102
RTVSPost2010PropOp53
 70
     1
102
RTVSPost2010Prop54
  1
strokes_ogs.tif
102
RTVSPost2010PropOp54
 70
     1
102
RTVSPost2010Prop55
280
     0
102
RTVSPost2010PropOp55
 70
     1
102
RTVSPost2010Prop56
140
1.0
102
RTVSPost2010PropOp56
 70
     1
102
RTVSPost2010Prop57
140
1.0
102
RTVSPost2010PropOp57
 70
     1
102
RTVSPropertyOp0
 70
     1
102
RTVSPropertyOp1
 70
     1
102
RTVSPropertyOp2
 70
     1
102
RTVSPropertyOp3
 70
     1
102
RTVSPropertyOp4
 70
     1
102
RTVSPropertyOp5
 70
     1
102
RTVSPropertyOp6
 70
     1
102
RTVSPropertyOp7
 70
     1
102
RTVSPropertyOp8
 70
     1
102
RTVSPropertyOp9
 70
     1
102
RTVSPropertyOp10
 70
     1
102
RTVSPropertyOp11
 70
     1
102
RTVSPropertyOp12
 70
     1
102
RTVSPropertyOp13
 70
     1
102
RTVSPropertyOp14
 70
     1
102
RTVSPropertyOp15
 70
     1
102
RTVSPropertyOp16
 70
     1
102
RTVSPropertyOp17
 70
     1
102
RTVSPropertyOp18
 70
     1
102
RTVSPropertyOp19
 70
     1
102
RTVSPropertyOp20
 70
     1
102
RTVSPropertyOp21
 70
     1
102
RTVSPropertyOp22
 70
     1
102
RTVSPropertyOp23
 70
     1
102
RTVSPropertyOp24
 70
     1
102
RTVSPropertyOp25
 70
     1
102
RTVSPropertyOp26
 70
     1
102
RTVSPropertyOp27
 70
     1
102
RTVSPropertyOp28
 70
     1
102
RTVSPropertyOp29
 70
     1
102
RTVSPropertyOp30
 70
     1
102
RTVSPropertyOp31
 70
     1
102
RTVSPropertyOp32
 70
     1
102
RTVSPropertyOp33
 70
     1
102
RTVSPropertyOp34
 70
     1
102
RTVSPropertyOp35
 70
     1
102
RTVSPropertyOp36
 70
     1
102
RTVSPropertyOp37
 70
     1
102
RTVSPropertyOp38
 70
     1
102
RTVSPropertyOp39
 70
     1
102
RTVSPropertyOp40
 70
     1
102
RTVSPropertyOp41
 70
     1
102
RTVSPropertyOp42
 70
     1
102
RTVSPropertyOp43
 70
     1
102
RTVSPropertyOp44
 70
     1
102
RTVSPropertyOp45
 70
     1
102
RTVSPropertyOp46
 70
     1
102
RTVSPropertyOp47
 70
     1
102
RTVSPropertyOp48
 70
     1
102
RTVSPropertyOp49
 70
     1
102
RTVSPropertyOp50
 70
     1
102
RTVSPropertyOp51
 70
     0
102
RTVSPropertyOp52
 70
     0
102
RTVSPropertyOp53
 70
     1
102
RTVSPropertyOp54
 70
     1
102
RTVSPropertyOp55
 70
     1
102
RTVSPropertyOp56
 70
     1
102
RTVSPropertyOp57
 70
     1
102
RTVSPropertyOp58
 70
     1
102
RTVSPropertyOp59
 70
     1
102
RTVSPropertyOp60
 70
     1
102
RTVSPropertyOp61
 70
     1
102
RTVSPropertyOp62
 70
     1
  0
XRECORD
  5
288C
102
{ACAD_REACTORS
330
288B
102
}
330
288B
100
AcDbXrecord
280
     1
102
RTVSPost2010Prop28
280
     0
102
RTVSPost2010PropOp28
 70
     1
102
RTVSPost2010Prop29
280
     1
102
RTVSPost2010PropOp29
 70
     1
102
RTVSPost2010Prop30
280
     1
102
RTVSPost2010PropOp30
 70
     1
102
RTVSPost2010Prop31
280
     0
102
RTVSPost2010PropOp31
 70
     1
102
RTVSPost2010Prop32
280
     0
102
RTVSPost2010PropOp32
 70
     1
102
RTVSPost2010Prop33
280
     0
102
RTVSPost2010PropOp33
 70
     1
102
RTVSPost2010Prop34
280
     0
102
RTVSPost2010PropOp34
 70
     1
102
RTVSPost2010Prop35
280
     0
102
RTVSPost2010PropOp35
 70
     1
102
RTVSPost2010Prop36
280
     0
102
RTVSPost2010PropOp36
 70
     1
102
RTVSPost2010Prop37
 90
       50
102
RTVSPost2010PropOp37
 70
     1
102
RTVSPost2010Prop38
140
0.0
102
RTVSPost2010PropOp38
 70
     1
102
RTVSPost2010Prop39
140
1.0
102
RTVSPost2010PropOp39
 70
     1
102
RTVSPost2010Prop40
 90
        0
102
RTVSPost2010PropOp40
 70
     1
102
RTVSPost2010Prop41ColorIndex
 90
       18
102
RTVSPost2010Prop41ColorRGB
 90
        0
102
RTVSPost2010PropOp41
 70
     1
102
RTVSPost2010Prop42
 90
       50
102
RTVSPost2010PropOp42
 70
     1
102
RTVSPost2010Prop43
 90
        3
102
RTVSPost2010PropOp43
 70
     1
102
RTVSPost2010Prop44ColorIndex
 90
        5
102
RTVSPost2010Prop44ColorRGB
 90
      255
102
RTVSPost2010PropOp44
 70
     1
102
RTVSPost2010Prop45
280
     0
102
RTVSPost2010PropOp45
 70
     1
102
RTVSPost2010Prop46
 90
       50
102
RTVSPost2010PropOp46
 70
     1
102
RTVSPost2010Prop47
 90
       50
102
RTVSPost2010PropOp47
 70
     1
102
RTVSPost2010Prop48
 90
       50
102
RTVSPost2010PropOp48
 70
     1
102
RTVSPost2010Prop49
280
     0
102
RTVSPost2010PropOp49
 70
     1
102
RTVSPost2010Prop50
 90
       50
102
RTVSPost2010PropOp50
 70
     1
102
RTVSPost2010Prop51ColorIndex
 90
      256
102
RTVSPost2010Prop51ColorRGB
 90
-16777216
102
RTVSPost2010PropOp51
 70
     0
102
RTVSPost2010Prop52
140
1.0
102
RTVSPost2010PropOp52
 70
     0
102
RTVSPost2010Prop53
 90
        2
102
RTVSPost2010PropOp53
 70
     1
102
RTVSPost2010Prop54
  1
strokes_ogs.tif
102
RTVSPost2010PropOp54
 70
     1
102
RTVSPost2010Prop55
280
     0
102
RTVSPost2010PropOp55
 70
     1
102
RTVSPost2010Prop56
140
1.0
102
RTVSPost2010PropOp56
 70
     1
102
RTVSPost2010Prop57
140
1.0
102
RTVSPost2010PropOp57
 70
     1
102
RTVSPropertyOp0
 70
     1
102
RTVSPropertyOp1
 70
     1
102
RTVSPropertyOp2
 70
     1
102
RTVSPropertyOp3
 70
     1
102
RTVSPropertyOp4
 70
     1
102
RTVSPropertyOp5
 70
     1
102
RTVSPropertyOp6
 70
     1
102
RTVSPropertyOp7
 70
     1
102
RTVSPropertyOp8
 70
     1
102
RTVSPropertyOp9
 70
     1
102
RTVSPropertyOp10
 70
     1
102
RTVSPropertyOp11
 70
     1
102
RTVSPropertyOp12
 70
     1
102
RTVSPropertyOp13
 70
     1
102
RTVSPropertyOp14
 70
     1
102
RTVSPropertyOp15
 70
     1
102
RTVSPropertyOp16
 70
     1
102
RTVSPropertyOp17
 70
     1
102
RTVSPropertyOp18
 70
     1
102
RTVSPropertyOp19
 70
     1
102
RTVSPropertyOp20
 70
     1
102
RTVSPropertyOp21
 70
     1
102
RTVSPropertyOp22
 70
     1
102
RTVSPropertyOp23
 70
     1
102
RTVSPropertyOp24
 70
     1
102
RTVSPropertyOp25
 70
     1
102
RTVSPropertyOp26
 70
     1
102
RTVSPropertyOp27
 70
     1
102
RTVSPropertyOp28
 70
     1
102
RTVSPropertyOp29
 70
     1
102
RTVSPropertyOp30
 70
     1
102
RTVSPropertyOp31
 70
     1
102
RTVSPropertyOp32
 70
     1
102
RTVSPropertyOp33
 70
     1
102
RTVSPropertyOp34
 70
     1
102
RTVSPropertyOp35
 70
     1
102
RTVSPropertyOp36
 70
     1
102
RTVSPropertyOp37
 70
     1
102
RTVSPropertyOp38
 70
     1
102
RTVSPropertyOp39
 70
     1
102
RTVSPropertyOp40
 70
     1
102
RTVSPropertyOp41
 70
     1
102
RTVSPropertyOp42
 70
     1
102
RTVSPropertyOp43
 70
     1
102
RTVSPropertyOp44
 70
     1
102
RTVSPropertyOp45
 70
     1
102
RTVSPropertyOp46
 70
     1
102
RTVSPropertyOp47
 70
     1
102
RTVSPropertyOp48
 70
     1
102
RTVSPropertyOp49
 70
     1
102
RTVSPropertyOp50
 70
     1
102
RTVSPropertyOp51
 70
     0
102
RTVSPropertyOp52
 70
     0
102
RTVSPropertyOp53
 70
     1
102
RTVSPropertyOp54
 70
     1
102
RTVSPropertyOp55
 70
     1
102
RTVSPropertyOp56
 70
     1
102
RTVSPropertyOp57
 70
     1
102
RTVSPropertyOp58
 70
     1
102
RTVSPropertyOp59
 70
     1
102
RTVSPropertyOp60
 70
     1
102
RTVSPropertyOp61
 70
     1
102
RTVSPropertyOp62
 70
     1
  0
XRECORD
  5
2894
102
{ACAD_REACTORS
330
2893
102
}
330
2893
100
AcDbXrecord
280
     1
102
RTVSPost2010Prop28
280
     0
102
RTVSPost2010PropOp28
 70
     1
102
RTVSPost2010Prop29
280
     1
102
RTVSPost2010PropOp29
 70
     1
102
RTVSPost2010Prop30
280
     1
102
RTVSPost2010PropOp30
 70
     1
102
RTVSPost2010Prop31
280
     0
102
RTVSPost2010PropOp31
 70
     1
102
RTVSPost2010Prop32
280
     0
102
RTVSPost2010PropOp32
 70
     1
102
RTVSPost2010Prop33
280
     0
102
RTVSPost2010PropOp33
 70
     1
102
RTVSPost2010Prop34
280
     0
102
RTVSPost2010PropOp34
 70
     1
102
RTVSPost2010Prop35
280
     0
102
RTVSPost2010PropOp35
 70
     1
102
RTVSPost2010Prop36
280
     0
102
RTVSPost2010PropOp36
 70
     1
102
RTVSPost2010Prop37
 90
       50
102
RTVSPost2010PropOp37
 70
     1
102
RTVSPost2010Prop38
140
0.0
102
RTVSPost2010PropOp38
 70
     1
102
RTVSPost2010Prop39
140
1.0
102
RTVSPost2010PropOp39
 70
     1
102
RTVSPost2010Prop40
 90
        0
102
RTVSPost2010PropOp40
 70
     1
102
RTVSPost2010Prop41ColorIndex
 90
       18
102
RTVSPost2010Prop41ColorRGB
 90
        0
102
RTVSPost2010PropOp41
 70
     1
102
RTVSPost2010Prop42
 90
       50
102
RTVSPost2010PropOp42
 70
     1
102
RTVSPost2010Prop43
 90
        3
102
RTVSPost2010PropOp43
 70
     1
102
RTVSPost2010Prop44ColorIndex
 90
        5
102
RTVSPost2010Prop44ColorRGB
 90
      255
102
RTVSPost2010PropOp44
 70
     1
102
RTVSPost2010Prop45
280
     0
102
RTVSPost2010PropOp45
 70
     1
102
RTVSPost2010Prop46
 90
       50
102
RTVSPost2010PropOp46
 70
     1
102
RTVSPost2010Prop47
 90
       50
102
RTVSPost2010PropOp47
 70
     1
102
RTVSPost2010Prop48
 90
       50
102
RTVSPost2010PropOp48
 70
     1
102
RTVSPost2010Prop49
280
     0
102
RTVSPost2010PropOp49
 70
     1
102
RTVSPost2010Prop50
 90
       50
102
RTVSPost2010PropOp50
 70
     1
102
RTVSPost2010Prop51ColorIndex
 90
      256
102
RTVSPost2010Prop51ColorRGB
 90
-16777216
102
RTVSPost2010PropOp51
 70
     0
102
RTVSPost2010Prop52
140
1.0
102
RTVSPost2010PropOp52
 70
     0
102
RTVSPost2010Prop53
 90
        2
102
RTVSPost2010PropOp53
 70
     1
102
RTVSPost2010Prop54
  1
strokes_ogs.tif
102
RTVSPost2010PropOp54
 70
     1
102
RTVSPost2010Prop55
280
     0
102
RTVSPost2010PropOp55
 70
     1
102
RTVSPost2010Prop56
140
1.0
102
RTVSPost2010PropOp56
 70
     1
102
RTVSPost2010Prop57
140
1.0
102
RTVSPost2010PropOp57
 70
     1
102
RTVSPropertyOp0
 70
     1
102
RTVSPropertyOp1
 70
     1
102
RTVSPropertyOp2
 70
     1
102
RTVSPropertyOp3
 70
     1
102
RTVSPropertyOp4
 70
     1
102
RTVSPropertyOp5
 70
     1
102
RTVSPropertyOp6
 70
     1
102
RTVSPropertyOp7
 70
     1
102
RTVSPropertyOp8
 70
     1
102
RTVSPropertyOp9
 70
     1
102
RTVSPropertyOp10
 70
     1
102
RTVSPropertyOp11
 70
     1
102
RTVSPropertyOp12
 70
     1
102
RTVSPropertyOp13
 70
     1
102
RTVSPropertyOp14
 70
     1
102
RTVSPropertyOp15
 70
     1
102
RTVSPropertyOp16
 70
     1
102
RTVSPropertyOp17
 70
     1
102
RTVSPropertyOp18
 70
     1
102
RTVSPropertyOp19
 70
     1
102
RTVSPropertyOp20
 70
     1
102
RTVSPropertyOp21
 70
     1
102
RTVSPropertyOp22
 70
     1
102
RTVSPropertyOp23
 70
     1
102
RTVSPropertyOp24
 70
     1
102
RTVSPropertyOp25
 70
     1
102
RTVSPropertyOp26
 70
     1
102
RTVSPropertyOp27
 70
     1
102
RTVSPropertyOp28
 70
     1
102
RTVSPropertyOp29
 70
     1
102
RTVSPropertyOp30
 70
     1
102
RTVSPropertyOp31
 70
     1
102
RTVSPropertyOp32
 70
     1
102
RTVSPropertyOp33
 70
     1
102
RTVSPropertyOp34
 70
     1
102
RTVSPropertyOp35
 70
     1
102
RTVSPropertyOp36
 70
     1
102
RTVSPropertyOp37
 70
     1
102
RTVSPropertyOp38
 70
     1
102
RTVSPropertyOp39
 70
     1
102
RTVSPropertyOp40
 70
     1
102
RTVSPropertyOp41
 70
     1
102
RTVSPropertyOp42
 70
     1
102
RTVSPropertyOp43
 70
     1
102
RTVSPropertyOp44
 70
     1
102
RTVSPropertyOp45
 70
     1
102
RTVSPropertyOp46
 70
     1
102
RTVSPropertyOp47
 70
     1
102
RTVSPropertyOp48
 70
     1
102
RTVSPropertyOp49
 70
     1
102
RTVSPropertyOp50
 70
     1
102
RTVSPropertyOp51
 70
     0
102
RTVSPropertyOp52
 70
     0
102
RTVSPropertyOp53
 70
     1
102
RTVSPropertyOp54
 70
     1
102
RTVSPropertyOp55
 70
     1
102
RTVSPropertyOp56
 70
     1
102
RTVSPropertyOp57
 70
     1
102
RTVSPropertyOp58
 70
     1
102
RTVSPropertyOp59
 70
     1
102
RTVSPropertyOp60
 70
     1
102
RTVSPropertyOp61
 70
     1
102
RTVSPropertyOp62
 70
     1
  0
XRECORD
  5
2886
102
{ACAD_REACTORS
330
2885
102
}
330
2885
100
AcDbXrecord
280
     1
102
RTVSPost2010Prop28
280
     0
102
RTVSPost2010PropOp28
 70
     1
102
RTVSPost2010Prop29
280
     1
102
RTVSPost2010PropOp29
 70
     1
102
RTVSPost2010Prop30
280
     1
102
RTVSPost2010PropOp30
 70
     1
102
RTVSPost2010Prop31
280
     0
102
RTVSPost2010PropOp31
 70
     1
102
RTVSPost2010Prop32
280
     0
102
RTVSPost2010PropOp32
 70
     1
102
RTVSPost2010Prop33
280
     0
102
RTVSPost2010PropOp33
 70
     1
102
RTVSPost2010Prop34
280
     0
102
RTVSPost2010PropOp34
 70
     1
102
RTVSPost2010Prop35
280
     0
102
RTVSPost2010PropOp35
 70
     1
102
RTVSPost2010Prop36
280
     0
102
RTVSPost2010PropOp36
 70
     1
102
RTVSPost2010Prop37
 90
       50
102
RTVSPost2010PropOp37
 70
     1
102
RTVSPost2010Prop38
140
0.0
102
RTVSPost2010PropOp38
 70
     1
102
RTVSPost2010Prop39
140
1.0
102
RTVSPost2010PropOp39
 70
     1
102
RTVSPost2010Prop40
 90
        0
102
RTVSPost2010PropOp40
 70
     1
102
RTVSPost2010Prop41ColorIndex
 90
       18
102
RTVSPost2010Prop41ColorRGB
 90
        0
102
RTVSPost2010PropOp41
 70
     1
102
RTVSPost2010Prop42
 90
       50
102
RTVSPost2010PropOp42
 70
     1
102
RTVSPost2010Prop43
 90
        3
102
RTVSPost2010PropOp43
 70
     1
102
RTVSPost2010Prop44ColorIndex
 90
        5
102
RTVSPost2010Prop44ColorRGB
 90
      255
102
RTVSPost2010PropOp44
 70
     1
102
RTVSPost2010Prop45
280
     0
102
RTVSPost2010PropOp45
 70
     1
102
RTVSPost2010Prop46
 90
       50
102
RTVSPost2010PropOp46
 70
     1
102
RTVSPost2010Prop47
 90
       50
102
RTVSPost2010PropOp47
 70
     1
102
RTVSPost2010Prop48
 90
       50
102
RTVSPost2010PropOp48
 70
     1
102
RTVSPost2010Prop49
280
     0
102
RTVSPost2010PropOp49
 70
     1
102
RTVSPost2010Prop50
 90
       50
102
RTVSPost2010PropOp50
 70
     1
102
RTVSPost2010Prop51ColorIndex
 90
      256
102
RTVSPost2010Prop51ColorRGB
 90
-16777216
102
RTVSPost2010PropOp51
 70
     0
102
RTVSPost2010Prop52
140
1.0
102
RTVSPost2010PropOp52
 70
     0
102
RTVSPost2010Prop53
 90
        2
102
RTVSPost2010PropOp53
 70
     1
102
RTVSPost2010Prop54
  1
strokes_ogs.tif
102
RTVSPost2010PropOp54
 70
     1
102
RTVSPost2010Prop55
280
     0
102
RTVSPost2010PropOp55
 70
     1
102
RTVSPost2010Prop56
140
1.0
102
RTVSPost2010PropOp56
 70
     1
102
RTVSPost2010Prop57
140
1.0
102
RTVSPost2010PropOp57
 70
     1
102
RTVSPropertyOp0
 70
     1
102
RTVSPropertyOp1
 70
     1
102
RTVSPropertyOp2
 70
     1
102
RTVSPropertyOp3
 70
     1
102
RTVSPropertyOp4
 70
     1
102
RTVSPropertyOp5
 70
     1
102
RTVSPropertyOp6
 70
     1
102
RTVSPropertyOp7
 70
     1
102
RTVSPropertyOp8
 70
     1
102
RTVSPropertyOp9
 70
     1
102
RTVSPropertyOp10
 70
     1
102
RTVSPropertyOp11
 70
     1
102
RTVSPropertyOp12
 70
     1
102
RTVSPropertyOp13
 70
     1
102
RTVSPropertyOp14
 70
     1
102
RTVSPropertyOp15
 70
     1
102
RTVSPropertyOp16
 70
     1
102
RTVSPropertyOp17
 70
     1
102
RTVSPropertyOp18
 70
     1
102
RTVSPropertyOp19
 70
     1
102
RTVSPropertyOp20
 70
     1
102
RTVSPropertyOp21
 70
     1
102
RTVSPropertyOp22
 70
     1
102
RTVSPropertyOp23
 70
     1
102
RTVSPropertyOp24
 70
     1
102
RTVSPropertyOp25
 70
     1
102
RTVSPropertyOp26
 70
     1
102
RTVSPropertyOp27
 70
     1
102
RTVSPropertyOp28
 70
     1
102
RTVSPropertyOp29
 70
     1
102
RTVSPropertyOp30
 70
     1
102
RTVSPropertyOp31
 70
     1
102
RTVSPropertyOp32
 70
     1
102
RTVSPropertyOp33
 70
     1
102
RTVSPropertyOp34
 70
     1
102
RTVSPropertyOp35
 70
     1
102
RTVSPropertyOp36
 70
     1
102
RTVSPropertyOp37
 70
     1
102
RTVSPropertyOp38
 70
     1
102
RTVSPropertyOp39
 70
     1
102
RTVSPropertyOp40
 70
     1
102
RTVSPropertyOp41
 70
     1
102
RTVSPropertyOp42
 70
     1
102
RTVSPropertyOp43
 70
     1
102
RTVSPropertyOp44
 70
     1
102
RTVSPropertyOp45
 70
     1
102
RTVSPropertyOp46
 70
     1
102
RTVSPropertyOp47
 70
     1
102
RTVSPropertyOp48
 70
     1
102
RTVSPropertyOp49
 70
     1
102
RTVSPropertyOp50
 70
     1
102
RTVSPropertyOp51
 70
     0
102
RTVSPropertyOp52
 70
     0
102
RTVSPropertyOp53
 70
     1
102
RTVSPropertyOp54
 70
     1
102
RTVSPropertyOp55
 70
     1
102
RTVSPropertyOp56
 70
     1
102
RTVSPropertyOp57
 70
     1
102
RTVSPropertyOp58
 70
     1
102
RTVSPropertyOp59
 70
     1
102
RTVSPropertyOp60
 70
     1
102
RTVSPropertyOp61
 70
     1
102
RTVSPropertyOp62
 70
     1
  0
XRECORD
  5
288A
102
{ACAD_REACTORS
330
2889
102
}
330
2889
100
AcDbXrecord
280
     1
102
RTVSPost2010Prop28
280
     0
102
RTVSPost2010PropOp28
 70
     1
102
RTVSPost2010Prop29
280
     1
102
RTVSPost2010PropOp29
 70
     1
102
RTVSPost2010Prop30
280
     1
102
RTVSPost2010PropOp30
 70
     1
102
RTVSPost2010Prop31
280
     0
102
RTVSPost2010PropOp31
 70
     1
102
RTVSPost2010Prop32
280
     0
102
RTVSPost2010PropOp32
 70
     1
102
RTVSPost2010Prop33
280
     0
102
RTVSPost2010PropOp33
 70
     1
102
RTVSPost2010Prop34
280
     0
102
RTVSPost2010PropOp34
 70
     1
102
RTVSPost2010Prop35
280
     0
102
RTVSPost2010PropOp35
 70
     1
102
RTVSPost2010Prop36
280
     0
102
RTVSPost2010PropOp36
 70
     1
102
RTVSPost2010Prop37
 90
       50
102
RTVSPost2010PropOp37
 70
     1
102
RTVSPost2010Prop38
140
0.0
102
RTVSPost2010PropOp38
 70
     1
102
RTVSPost2010Prop39
140
1.0
102
RTVSPost2010PropOp39
 70
     1
102
RTVSPost2010Prop40
 90
        0
102
RTVSPost2010PropOp40
 70
     1
102
RTVSPost2010Prop41ColorIndex
 90
       18
102
RTVSPost2010Prop41ColorRGB
 90
        0
102
RTVSPost2010PropOp41
 70
     1
102
RTVSPost2010Prop42
 90
       50
102
RTVSPost2010PropOp42
 70
     1
102
RTVSPost2010Prop43
 90
        3
102
RTVSPost2010PropOp43
 70
     1
102
RTVSPost2010Prop44ColorIndex
 90
        5
102
RTVSPost2010Prop44ColorRGB
 90
      255
102
RTVSPost2010PropOp44
 70
     1
102
RTVSPost2010Prop45
280
     0
102
RTVSPost2010PropOp45
 70
     1
102
RTVSPost2010Prop46
 90
       50
102
RTVSPost2010PropOp46
 70
     1
102
RTVSPost2010Prop47
 90
       50
102
RTVSPost2010PropOp47
 70
     1
102
RTVSPost2010Prop48
 90
       50
102
RTVSPost2010PropOp48
 70
     1
102
RTVSPost2010Prop49
280
     0
102
RTVSPost2010PropOp49
 70
     1
102
RTVSPost2010Prop50
 90
       50
102
RTVSPost2010PropOp50
 70
     1
102
RTVSPost2010Prop51ColorIndex
 90
      256
102
RTVSPost2010Prop51ColorRGB
 90
-16777216
102
RTVSPost2010PropOp51
 70
     0
102
RTVSPost2010Prop52
140
1.0
102
RTVSPost2010PropOp52
 70
     0
102
RTVSPost2010Prop53
 90
        2
102
RTVSPost2010PropOp53
 70
     1
102
RTVSPost2010Prop54
  1
strokes_ogs.tif
102
RTVSPost2010PropOp54
 70
     1
102
RTVSPost2010Prop55
280
     0
102
RTVSPost2010PropOp55
 70
     1
102
RTVSPost2010Prop56
140
1.0
102
RTVSPost2010PropOp56
 70
     1
102
RTVSPost2010Prop57
140
1.0
102
RTVSPost2010PropOp57
 70
     1
102
RTVSPropertyOp0
 70
     1
102
RTVSPropertyOp1
 70
     1
102
RTVSPropertyOp2
 70
     1
102
RTVSPropertyOp3
 70
     1
102
RTVSPropertyOp4
 70
     1
102
RTVSPropertyOp5
 70
     1
102
RTVSPropertyOp6
 70
     1
102
RTVSPropertyOp7
 70
     1
102
RTVSPropertyOp8
 70
     1
102
RTVSPropertyOp9
 70
     1
102
RTVSPropertyOp10
 70
     1
102
RTVSPropertyOp11
 70
     1
102
RTVSPropertyOp12
 70
     1
102
RTVSPropertyOp13
 70
     1
102
RTVSPropertyOp14
 70
     1
102
RTVSPropertyOp15
 70
     1
102
RTVSPropertyOp16
 70
     1
102
RTVSPropertyOp17
 70
     1
102
RTVSPropertyOp18
 70
     1
102
RTVSPropertyOp19
 70
     1
102
RTVSPropertyOp20
 70
     1
102
RTVSPropertyOp21
 70
     1
102
RTVSPropertyOp22
 70
     1
102
RTVSPropertyOp23
 70
     1
102
RTVSPropertyOp24
 70
     1
102
RTVSPropertyOp25
 70
     1
102
RTVSPropertyOp26
 70
     1
102
RTVSPropertyOp27
 70
     1
102
RTVSPropertyOp28
 70
     1
102
RTVSPropertyOp29
 70
     1
102
RTVSPropertyOp30
 70
     1
102
RTVSPropertyOp31
 70
     1
102
RTVSPropertyOp32
 70
     1
102
RTVSPropertyOp33
 70
     1
102
RTVSPropertyOp34
 70
     1
102
RTVSPropertyOp35
 70
     1
102
RTVSPropertyOp36
 70
     1
102
RTVSPropertyOp37
 70
     1
102
RTVSPropertyOp38
 70
     1
102
RTVSPropertyOp39
 70
     1
102
RTVSPropertyOp40
 70
     1
102
RTVSPropertyOp41
 70
     1
102
RTVSPropertyOp42
 70
     1
102
RTVSPropertyOp43
 70
     1
102
RTVSPropertyOp44
 70
     1
102
RTVSPropertyOp45
 70
     1
102
RTVSPropertyOp46
 70
     1
102
RTVSPropertyOp47
 70
     1
102
RTVSPropertyOp48
 70
     1
102
RTVSPropertyOp49
 70
     1
102
RTVSPropertyOp50
 70
     1
102
RTVSPropertyOp51
 70
     0
102
RTVSPropertyOp52
 70
     0
102
RTVSPropertyOp53
 70
     1
102
RTVSPropertyOp54
 70
     1
102
RTVSPropertyOp55
 70
     1
102
RTVSPropertyOp56
 70
     1
102
RTVSPropertyOp57
 70
     1
102
RTVSPropertyOp58
 70
     1
102
RTVSPropertyOp59
 70
     1
102
RTVSPropertyOp60
 70
     1
102
RTVSPropertyOp61
 70
     1
102
RTVSPropertyOp62
 70
     1
  0
XRECORD
  5
28A4
102
{ACAD_REACTORS
330
28A3
102
}
330
28A3
100
AcDbXrecord
280
     1
102
RTVSPost2010Prop28
280
     0
102
RTVSPost2010PropOp28
 70
     0
102
RTVSPost2010Prop29
280
     1
102
RTVSPost2010PropOp29
 70
     0
102
RTVSPost2010Prop30
280
     1
102
RTVSPost2010PropOp30
 70
     0
102
RTVSPost2010Prop31
280
     0
102
RTVSPost2010PropOp31
 70
     0
102
RTVSPost2010Prop32
280
     0
102
RTVSPost2010PropOp32
 70
     0
102
RTVSPost2010Prop33
280
     0
102
RTVSPost2010PropOp33
 70
     0
102
RTVSPost2010Prop34
280
     0
102
RTVSPost2010PropOp34
 70
     0
102
RTVSPost2010Prop35
280
     0
102
RTVSPost2010PropOp35
 70
     0
102
RTVSPost2010Prop36
280
     0
102
RTVSPost2010PropOp36
 70
     0
102
RTVSPost2010Prop37
 90
       50
102
RTVSPost2010PropOp37
 70
     0
102
RTVSPost2010Prop38
140
0.0
102
RTVSPost2010PropOp38
 70
     0
102
RTVSPost2010Prop39
140
1.0
102
RTVSPost2010PropOp39
 70
     0
102
RTVSPost2010Prop40
 90
        0
102
RTVSPost2010PropOp40
 70
     0
102
RTVSPost2010Prop41ColorIndex
 90
       18
102
RTVSPost2010Prop41ColorRGB
 90
        0
102
RTVSPost2010PropOp41
 70
     0
102
RTVSPost2010Prop42
 90
       50
102
RTVSPost2010PropOp42
 70
     0
102
RTVSPost2010Prop43
 90
        3
102
RTVSPost2010PropOp43
 70
     0
102
RTVSPost2010Prop44ColorIndex
 90
        5
102
RTVSPost2010Prop44ColorRGB
 90
      255
102
RTVSPost2010PropOp44
 70
     0
102
RTVSPost2010Prop45
280
     0
102
RTVSPost2010PropOp45
 70
     0
102
RTVSPost2010Prop46
 90
       50
102
RTVSPost2010PropOp46
 70
     0
102
RTVSPost2010Prop47
 90
       50
102
RTVSPost2010PropOp47
 70
     0
102
RTVSPost2010Prop48
 90
       50
102
RTVSPost2010PropOp48
 70
     0
102
RTVSPost2010Prop49
280
     0
102
RTVSPost2010PropOp49
 70
     0
102
RTVSPost2010Prop50
 90
       50
102
RTVSPost2010PropOp50
 70
     0
102
RTVSPost2010Prop51ColorIndex
 90
      256
102
RTVSPost2010Prop51ColorRGB
 90
-16777216
102
RTVSPost2010PropOp51
 70
     0
102
RTVSPost2010Prop52
140
1.0
102
RTVSPost2010PropOp52
 70
     0
102
RTVSPost2010Prop53
 90
        2
102
RTVSPost2010PropOp53
 70
     0
102
RTVSPost2010Prop54
  1
strokes_ogs.tif
102
RTVSPost2010PropOp54
 70
     0
102
RTVSPost2010Prop55
280
     0
102
RTVSPost2010PropOp55
 70
     0
102
RTVSPost2010Prop56
140
1.0
102
RTVSPost2010PropOp56
 70
     0
102
RTVSPost2010Prop57
140
1.0
102
RTVSPost2010PropOp57
 70
     0
102
RTVSPropertyOp0
 70
     0
102
RTVSPropertyOp1
 70
     0
102
RTVSPropertyOp2
 70
     0
102
RTVSPropertyOp3
 70
     0
102
RTVSPropertyOp4
 70
     0
102
RTVSPropertyOp5
 70
     0
102
RTVSPropertyOp6
 70
     0
102
RTVSPropertyOp7
 70
     0
102
RTVSPropertyOp8
 70
     0
102
RTVSPropertyOp9
 70
     0
102
RTVSPropertyOp10
 70
     0
102
RTVSPropertyOp11
 70
     0
102
RTVSPropertyOp12
 70
     0
102
RTVSPropertyOp13
 70
     0
102
RTVSPropertyOp14
 70
     2
102
RTVSPropertyOp15
 70
     0
102
RTVSPropertyOp16
 70
     0
102
RTVSPropertyOp17
 70
     0
102
RTVSPropertyOp18
 70
     0
102
RTVSPropertyOp19
 70
     0
102
RTVSPropertyOp20
 70
     0
102
RTVSPropertyOp21
 70
     0
102
RTVSPropertyOp22
 70
     0
102
RTVSPropertyOp23
 70
     0
102
RTVSPropertyOp24
 70
     0
102
RTVSPropertyOp25
 70
     0
102
RTVSPropertyOp26
 70
     0
102
RTVSPropertyOp27
 70
     0
102
RTVSPropertyOp28
 70
     0
102
RTVSPropertyOp29
 70
     0
102
RTVSPropertyOp30
 70
     0
102
RTVSPropertyOp31
 70
     0
102
RTVSPropertyOp32
 70
     0
102
RTVSPropertyOp33
 70
     0
102
RTVSPropertyOp34
 70
     0
102
RTVSPropertyOp35
 70
     0
102
RTVSPropertyOp36
 70
     0
102
RTVSPropertyOp37
 70
     0
102
RTVSPropertyOp38
 70
     0
102
RTVSPropertyOp39
 70
     0
102
RTVSPropertyOp40
 70
     0
102
RTVSPropertyOp41
 70
     0
102
RTVSPropertyOp42
 70
     0
102
RTVSPropertyOp43
 70
     0
102
RTVSPropertyOp44
 70
     0
102
RTVSPropertyOp45
 70
     0
102
RTVSPropertyOp46
 70
     0
102
RTVSPropertyOp47
 70
     0
102
RTVSPropertyOp48
 70
     0
102
RTVSPropertyOp49
 70
     0
102
RTVSPropertyOp50
 70
     0
102
RTVSPropertyOp51
 70
     0
102
RTVSPropertyOp52
 70
     0
102
RTVSPropertyOp53
 70
     0
102
RTVSPropertyOp54
 70
     0
102
RTVSPropertyOp55
 70
     0
102
RTVSPropertyOp56
 70
     0
102
RTVSPropertyOp57
 70
     0
102
RTVSPropertyOp58
 70
     0
102
RTVSPropertyOp59
 70
     0
102
RTVSPropertyOp60
 70
     0
102
RTVSPropertyOp61
 70
     0
102
RTVSPropertyOp62
 70
     0
  0
XRECORD
  5
2892
102
{ACAD_REACTORS
330
2891
102
}
330
2891
100
AcDbXrecord
280
     1
102
RTVSPost2010Prop28
280
     0
102
RTVSPost2010PropOp28
 70
     1
102
RTVSPost2010Prop29
280
     1
102
RTVSPost2010PropOp29
 70
     1
102
RTVSPost2010Prop30
280
     1
102
RTVSPost2010PropOp30
 70
     1
102
RTVSPost2010Prop31
280
     0
102
RTVSPost2010PropOp31
 70
     1
102
RTVSPost2010Prop32
280
     0
102
RTVSPost2010PropOp32
 70
     1
102
RTVSPost2010Prop33
280
     0
102
RTVSPost2010PropOp33
 70
     1
102
RTVSPost2010Prop34
280
     0
102
RTVSPost2010PropOp34
 70
     1
102
RTVSPost2010Prop35
280
     0
102
RTVSPost2010PropOp35
 70
     1
102
RTVSPost2010Prop36
280
     0
102
RTVSPost2010PropOp36
 70
     1
102
RTVSPost2010Prop37
 90
       50
102
RTVSPost2010PropOp37
 70
     1
102
RTVSPost2010Prop38
140
0.0
102
RTVSPost2010PropOp38
 70
     1
102
RTVSPost2010Prop39
140
1.0
102
RTVSPost2010PropOp39
 70
     1
102
RTVSPost2010Prop40
 90
        0
102
RTVSPost2010PropOp40
 70
     1
102
RTVSPost2010Prop41ColorIndex
 90
       18
102
RTVSPost2010Prop41ColorRGB
 90
        0
102
RTVSPost2010PropOp41
 70
     1
102
RTVSPost2010Prop42
 90
       50
102
RTVSPost2010PropOp42
 70
     1
102
RTVSPost2010Prop43
 90
        3
102
RTVSPost2010PropOp43
 70
     1
102
RTVSPost2010Prop44ColorIndex
 90
        5
102
RTVSPost2010Prop44ColorRGB
 90
      255
102
RTVSPost2010PropOp44
 70
     1
102
RTVSPost2010Prop45
280
     0
102
RTVSPost2010PropOp45
 70
     1
102
RTVSPost2010Prop46
 90
       50
102
RTVSPost2010PropOp46
 70
     1
102
RTVSPost2010Prop47
 90
       50
102
RTVSPost2010PropOp47
 70
     1
102
RTVSPost2010Prop48
 90
       50
102
RTVSPost2010PropOp48
 70
     1
102
RTVSPost2010Prop49
280
     0
102
RTVSPost2010PropOp49
 70
     1
102
RTVSPost2010Prop50
 90
       50
102
RTVSPost2010PropOp50
 70
     1
102
RTVSPost2010Prop51ColorIndex
 90
      256
102
RTVSPost2010Prop51ColorRGB
 90
-16777216
102
RTVSPost2010PropOp51
 70
     0
102
RTVSPost2010Prop52
140
1.0
102
RTVSPost2010PropOp52
 70
     0
102
RTVSPost2010Prop53
 90
        2
102
RTVSPost2010PropOp53
 70
     1
102
RTVSPost2010Prop54
  1
strokes_ogs.tif
102
RTVSPost2010PropOp54
 70
     1
102
RTVSPost2010Prop55
280
     0
102
RTVSPost2010PropOp55
 70
     1
102
RTVSPost2010Prop56
140
1.0
102
RTVSPost2010PropOp56
 70
     1
102
RTVSPost2010Prop57
140
1.0
102
RTVSPost2010PropOp57
 70
     1
102
RTVSPropertyOp0
 70
     1
102
RTVSPropertyOp1
 70
     1
102
RTVSPropertyOp2
 70
     1
102
RTVSPropertyOp3
 70
     1
102
RTVSPropertyOp4
 70
     1
102
RTVSPropertyOp5
 70
     1
102
RTVSPropertyOp6
 70
     1
102
RTVSPropertyOp7
 70
     1
102
RTVSPropertyOp8
 70
     1
102
RTVSPropertyOp9
 70
     1
102
RTVSPropertyOp10
 70
     1
102
RTVSPropertyOp11
 70
     1
102
RTVSPropertyOp12
 70
     1
102
RTVSPropertyOp13
 70
     1
102
RTVSPropertyOp14
 70
     1
102
RTVSPropertyOp15
 70
     1
102
RTVSPropertyOp16
 70
     1
102
RTVSPropertyOp17
 70
     1
102
RTVSPropertyOp18
 70
     1
102
RTVSPropertyOp19
 70
     1
102
RTVSPropertyOp20
 70
     1
102
RTVSPropertyOp21
 70
     1
102
RTVSPropertyOp22
 70
     1
102
RTVSPropertyOp23
 70
     1
102
RTVSPropertyOp24
 70
     1
102
RTVSPropertyOp25
 70
     1
102
RTVSPropertyOp26
 70
     1
102
RTVSPropertyOp27
 70
     1
102
RTVSPropertyOp28
 70
     1
102
RTVSPropertyOp29
 70
     1
102
RTVSPropertyOp30
 70
     1
102
RTVSPropertyOp31
 70
     1
102
RTVSPropertyOp32
 70
     1
102
RTVSPropertyOp33
 70
     1
102
RTVSPropertyOp34
 70
     1
102
RTVSPropertyOp35
 70
     1
102
RTVSPropertyOp36
 70
     1
102
RTVSPropertyOp37
 70
     1
102
RTVSPropertyOp38
 70
     1
102
RTVSPropertyOp39
 70
     1
102
RTVSPropertyOp40
 70
     1
102
RTVSPropertyOp41
 70
     1
102
RTVSPropertyOp42
 70
     1
102
RTVSPropertyOp43
 70
     1
102
RTVSPropertyOp44
 70
     1
102
RTVSPropertyOp45
 70
     1
102
RTVSPropertyOp46
 70
     1
102
RTVSPropertyOp47
 70
     1
102
RTVSPropertyOp48
 70
     1
102
RTVSPropertyOp49
 70
     1
102
RTVSPropertyOp50
 70
     1
102
RTVSPropertyOp51
 70
     0
102
RTVSPropertyOp52
 70
     0
102
RTVSPropertyOp53
 70
     1
102
RTVSPropertyOp54
 70
     1
102
RTVSPropertyOp55
 70
     1
102
RTVSPropertyOp56
 70
     1
102
RTVSPropertyOp57
 70
     1
102
RTVSPropertyOp58
 70
     1
102
RTVSPropertyOp59
 70
     1
102
RTVSPropertyOp60
 70
     1
102
RTVSPropertyOp61
 70
     1
102
RTVSPropertyOp62
 70
     1
  0
XRECORD
  5
2876
102
{ACAD_REACTORS
330
2875
102
}
330
2875
100
AcDbXrecord
280
     1
102
RTVSPost2010Prop28
280
     0
102
RTVSPost2010PropOp28
 70
     1
102
RTVSPost2010Prop29
280
     1
102
RTVSPost2010PropOp29
 70
     1
102
RTVSPost2010Prop30
280
     1
102
RTVSPost2010PropOp30
 70
     1
102
RTVSPost2010Prop31
280
     0
102
RTVSPost2010PropOp31
 70
     1
102
RTVSPost2010Prop32
280
     0
102
RTVSPost2010PropOp32
 70
     1
102
RTVSPost2010Prop33
280
     0
102
RTVSPost2010PropOp33
 70
     1
102
RTVSPost2010Prop34
280
     0
102
RTVSPost2010PropOp34
 70
     1
102
RTVSPost2010Prop35
280
     0
102
RTVSPost2010PropOp35
 70
     1
102
RTVSPost2010Prop36
280
     0
102
RTVSPost2010PropOp36
 70
     1
102
RTVSPost2010Prop37
 90
       50
102
RTVSPost2010PropOp37
 70
     1
102
RTVSPost2010Prop38
140
0.0
102
RTVSPost2010PropOp38
 70
     1
102
RTVSPost2010Prop39
140
1.0
102
RTVSPost2010PropOp39
 70
     1
102
RTVSPost2010Prop40
 90
        0
102
RTVSPost2010PropOp40
 70
     1
102
RTVSPost2010Prop41ColorIndex
 90
       18
102
RTVSPost2010Prop41ColorRGB
 90
        0
102
RTVSPost2010PropOp41
 70
     1
102
RTVSPost2010Prop42
 90
       50
102
RTVSPost2010PropOp42
 70
     1
102
RTVSPost2010Prop43
 90
        3
102
RTVSPost2010PropOp43
 70
     1
102
RTVSPost2010Prop44ColorIndex
 90
        5
102
RTVSPost2010Prop44ColorRGB
 90
      255
102
RTVSPost2010PropOp44
 70
     1
102
RTVSPost2010Prop45
280
     0
102
RTVSPost2010PropOp45
 70
     1
102
RTVSPost2010Prop46
 90
       50
102
RTVSPost2010PropOp46
 70
     1
102
RTVSPost2010Prop47
 90
       50
102
RTVSPost2010PropOp47
 70
     1
102
RTVSPost2010Prop48
 90
       50
102
RTVSPost2010PropOp48
 70
     1
102
RTVSPost2010Prop49
280
     0
102
RTVSPost2010PropOp49
 70
     1
102
RTVSPost2010Prop50
 90
       50
102
RTVSPost2010PropOp50
 70
     1
102
RTVSPost2010Prop51ColorIndex
 90
      256
102
RTVSPost2010Prop51ColorRGB
 90
-16777216
102
RTVSPost2010PropOp51
 70
     0
102
RTVSPost2010Prop52
140
1.0
102
RTVSPost2010PropOp52
 70
     0
102
RTVSPost2010Prop53
 90
        2
102
RTVSPost2010PropOp53
 70
     1
102
RTVSPost2010Prop54
  1
strokes_ogs.tif
102
RTVSPost2010PropOp54
 70
     1
102
RTVSPost2010Prop55
280
     0
102
RTVSPost2010PropOp55
 70
     1
102
RTVSPost2010Prop56
140
1.0
102
RTVSPost2010PropOp56
 70
     1
102
RTVSPost2010Prop57
140
1.0
102
RTVSPost2010PropOp57
 70
     1
102
RTVSPropertyOp0
 70
     1
102
RTVSPropertyOp1
 70
     1
102
RTVSPropertyOp2
 70
     1
102
RTVSPropertyOp3
 70
     1
102
RTVSPropertyOp4
 70
     1
102
RTVSPropertyOp5
 70
     1
102
RTVSPropertyOp6
 70
     1
102
RTVSPropertyOp7
 70
     1
102
RTVSPropertyOp8
 70
     1
102
RTVSPropertyOp9
 70
     1
102
RTVSPropertyOp10
 70
     1
102
RTVSPropertyOp11
 70
     1
102
RTVSPropertyOp12
 70
     1
102
RTVSPropertyOp13
 70
     1
102
RTVSPropertyOp14
 70
     1
102
RTVSPropertyOp15
 70
     1
102
RTVSPropertyOp16
 70
     1
102
RTVSPropertyOp17
 70
     1
102
RTVSPropertyOp18
 70
     1
102
RTVSPropertyOp19
 70
     1
102
RTVSPropertyOp20
 70
     1
102
RTVSPropertyOp21
 70
     1
102
RTVSPropertyOp22
 70
     1
102
RTVSPropertyOp23
 70
     1
102
RTVSPropertyOp24
 70
     1
102
RTVSPropertyOp25
 70
     1
102
RTVSPropertyOp26
 70
     1
102
RTVSPropertyOp27
 70
     1
102
RTVSPropertyOp28
 70
     1
102
RTVSPropertyOp29
 70
     1
102
RTVSPropertyOp30
 70
     1
102
RTVSPropertyOp31
 70
     1
102
RTVSPropertyOp32
 70
     1
102
RTVSPropertyOp33
 70
     1
102
RTVSPropertyOp34
 70
     1
102
RTVSPropertyOp35
 70
     1
102
RTVSPropertyOp36
 70
     1
102
RTVSPropertyOp37
 70
     1
102
RTVSPropertyOp38
 70
     1
102
RTVSPropertyOp39
 70
     1
102
RTVSPropertyOp40
 70
     1
102
RTVSPropertyOp41
 70
     1
102
RTVSPropertyOp42
 70
     1
102
RTVSPropertyOp43
 70
     1
102
RTVSPropertyOp44
 70
     1
102
RTVSPropertyOp45
 70
     1
102
RTVSPropertyOp46
 70
     1
102
RTVSPropertyOp47
 70
     1
102
RTVSPropertyOp48
 70
     1
102
RTVSPropertyOp49
 70
     1
102
RTVSPropertyOp50
 70
     1
102
RTVSPropertyOp51
 70
     0
102
RTVSPropertyOp52
 70
     0
102
RTVSPropertyOp53
 70
     1
102
RTVSPropertyOp54
 70
     1
102
RTVSPropertyOp55
 70
     1
102
RTVSPropertyOp56
 70
     1
102
RTVSPropertyOp57
 70
     1
102
RTVSPropertyOp58
 70
     1
102
RTVSPropertyOp59
 70
     1
102
RTVSPropertyOp60
 70
     1
102
RTVSPropertyOp61
 70
     1
102
RTVSPropertyOp62
 70
     1
  0
XRECORD
  5
2878
102
{ACAD_REACTORS
330
2877
102
}
330
2877
100
AcDbXrecord
280
     1
102
RTVSPost2010Prop28
280
     0
102
RTVSPost2010PropOp28
 70
     1
102
RTVSPost2010Prop29
280
     1
102
RTVSPost2010PropOp29
 70
     1
102
RTVSPost2010Prop30
280
     1
102
RTVSPost2010PropOp30
 70
     1
102
RTVSPost2010Prop31
280
     0
102
RTVSPost2010PropOp31
 70
     1
102
RTVSPost2010Prop32
280
     0
102
RTVSPost2010PropOp32
 70
     1
102
RTVSPost2010Prop33
280
     0
102
RTVSPost2010PropOp33
 70
     1
102
RTVSPost2010Prop34
280
     0
102
RTVSPost2010PropOp34
 70
     1
102
RTVSPost2010Prop35
280
     0
102
RTVSPost2010PropOp35
 70
     1
102
RTVSPost2010Prop36
280
     0
102
RTVSPost2010PropOp36
 70
     1
102
RTVSPost2010Prop37
 90
       50
102
RTVSPost2010PropOp37
 70
     1
102
RTVSPost2010Prop38
140
0.0
102
RTVSPost2010PropOp38
 70
     1
102
RTVSPost2010Prop39
140
1.0
102
RTVSPost2010PropOp39
 70
     1
102
RTVSPost2010Prop40
 90
        0
102
RTVSPost2010PropOp40
 70
     1
102
RTVSPost2010Prop41ColorIndex
 90
       18
102
RTVSPost2010Prop41ColorRGB
 90
        0
102
RTVSPost2010PropOp41
 70
     1
102
RTVSPost2010Prop42
 90
       50
102
RTVSPost2010PropOp42
 70
     1
102
RTVSPost2010Prop43
 90
        3
102
RTVSPost2010PropOp43
 70
     1
102
RTVSPost2010Prop44ColorIndex
 90
        5
102
RTVSPost2010Prop44ColorRGB
 90
      255
102
RTVSPost2010PropOp44
 70
     1
102
RTVSPost2010Prop45
280
     0
102
RTVSPost2010PropOp45
 70
     1
102
RTVSPost2010Prop46
 90
       50
102
RTVSPost2010PropOp46
 70
     1
102
RTVSPost2010Prop47
 90
       50
102
RTVSPost2010PropOp47
 70
     1
102
RTVSPost2010Prop48
 90
       50
102
RTVSPost2010PropOp48
 70
     1
102
RTVSPost2010Prop49
280
     0
102
RTVSPost2010PropOp49
 70
     1
102
RTVSPost2010Prop50
 90
       50
102
RTVSPost2010PropOp50
 70
     1
102
RTVSPost2010Prop51ColorIndex
 90
      256
102
RTVSPost2010Prop51ColorRGB
 90
-16777216
102
RTVSPost2010PropOp51
 70
     0
102
RTVSPost2010Prop52
140
1.0
102
RTVSPost2010PropOp52
 70
     0
102
RTVSPost2010Prop53
 90
        2
102
RTVSPost2010PropOp53
 70
     1
102
RTVSPost2010Prop54
  1
strokes_ogs.tif
102
RTVSPost2010PropOp54
 70
     1
102
RTVSPost2010Prop55
280
     0
102
RTVSPost2010PropOp55
 70
     1
102
RTVSPost2010Prop56
140
1.0
102
RTVSPost2010PropOp56
 70
     1
102
RTVSPost2010Prop57
140
1.0
102
RTVSPost2010PropOp57
 70
     1
102
RTVSPropertyOp0
 70
     1
102
RTVSPropertyOp1
 70
     1
102
RTVSPropertyOp2
 70
     1
102
RTVSPropertyOp3
 70
     1
102
RTVSPropertyOp4
 70
     1
102
RTVSPropertyOp5
 70
     1
102
RTVSPropertyOp6
 70
     1
102
RTVSPropertyOp7
 70
     1
102
RTVSPropertyOp8
 70
     1
102
RTVSPropertyOp9
 70
     1
102
RTVSPropertyOp10
 70
     1
102
RTVSPropertyOp11
 70
     1
102
RTVSPropertyOp12
 70
     1
102
RTVSPropertyOp13
 70
     1
102
RTVSPropertyOp14
 70
     1
102
RTVSPropertyOp15
 70
     1
102
RTVSPropertyOp16
 70
     1
102
RTVSPropertyOp17
 70
     1
102
RTVSPropertyOp18
 70
     1
102
RTVSPropertyOp19
 70
     1
102
RTVSPropertyOp20
 70
     1
102
RTVSPropertyOp21
 70
     1
102
RTVSPropertyOp22
 70
     1
102
RTVSPropertyOp23
 70
     1
102
RTVSPropertyOp24
 70
     1
102
RTVSPropertyOp25
 70
     1
102
RTVSPropertyOp26
 70
     1
102
RTVSPropertyOp27
 70
     1
102
RTVSPropertyOp28
 70
     1
102
RTVSPropertyOp29
 70
     1
102
RTVSPropertyOp30
 70
     1
102
RTVSPropertyOp31
 70
     1
102
RTVSPropertyOp32
 70
     1
102
RTVSPropertyOp33
 70
     1
102
RTVSPropertyOp34
 70
     1
102
RTVSPropertyOp35
 70
     1
102
RTVSPropertyOp36
 70
     1
102
RTVSPropertyOp37
 70
     1
102
RTVSPropertyOp38
 70
     1
102
RTVSPropertyOp39
 70
     1
102
RTVSPropertyOp40
 70
     1
102
RTVSPropertyOp41
 70
     1
102
RTVSPropertyOp42
 70
     1
102
RTVSPropertyOp43
 70
     1
102
RTVSPropertyOp44
 70
     1
102
RTVSPropertyOp45
 70
     1
102
RTVSPropertyOp46
 70
     1
102
RTVSPropertyOp47
 70
     1
102
RTVSPropertyOp48
 70
     1
102
RTVSPropertyOp49
 70
     1
102
RTVSPropertyOp50
 70
     1
102
RTVSPropertyOp51
 70
     0
102
RTVSPropertyOp52
 70
     0
102
RTVSPropertyOp53
 70
     1
102
RTVSPropertyOp54
 70
     1
102
RTVSPropertyOp55
 70
     1
102
RTVSPropertyOp56
 70
     1
102
RTVSPropertyOp57
 70
     1
102
RTVSPropertyOp58
 70
     1
102
RTVSPropertyOp59
 70
     1
102
RTVSPropertyOp60
 70
     1
102
RTVSPropertyOp61
 70
     1
102
RTVSPropertyOp62
 70
     1
  0
XRECORD
  5
287A
102
{ACAD_REACTORS
330
2879
102
}
330
2879
100
AcDbXrecord
280
     1
102
RTVSPost2010Prop28
280
     0
102
RTVSPost2010PropOp28
 70
     1
102
RTVSPost2010Prop29
280
     1
102
RTVSPost2010PropOp29
 70
     1
102
RTVSPost2010Prop30
280
     1
102
RTVSPost2010PropOp30
 70
     1
102
RTVSPost2010Prop31
280
     0
102
RTVSPost2010PropOp31
 70
     1
102
RTVSPost2010Prop32
280
     0
102
RTVSPost2010PropOp32
 70
     1
102
RTVSPost2010Prop33
280
     0
102
RTVSPost2010PropOp33
 70
     1
102
RTVSPost2010Prop34
280
     0
102
RTVSPost2010PropOp34
 70
     1
102
RTVSPost2010Prop35
280
     0
102
RTVSPost2010PropOp35
 70
     1
102
RTVSPost2010Prop36
280
     0
102
RTVSPost2010PropOp36
 70
     1
102
RTVSPost2010Prop37
 90
       50
102
RTVSPost2010PropOp37
 70
     1
102
RTVSPost2010Prop38
140
0.0
102
RTVSPost2010PropOp38
 70
     1
102
RTVSPost2010Prop39
140
1.0
102
RTVSPost2010PropOp39
 70
     1
102
RTVSPost2010Prop40
 90
        0
102
RTVSPost2010PropOp40
 70
     1
102
RTVSPost2010Prop41ColorIndex
 90
       18
102
RTVSPost2010Prop41ColorRGB
 90
        0
102
RTVSPost2010PropOp41
 70
     1
102
RTVSPost2010Prop42
 90
       50
102
RTVSPost2010PropOp42
 70
     1
102
RTVSPost2010Prop43
 90
        3
102
RTVSPost2010PropOp43
 70
     1
102
RTVSPost2010Prop44ColorIndex
 90
        5
102
RTVSPost2010Prop44ColorRGB
 90
      255
102
RTVSPost2010PropOp44
 70
     1
102
RTVSPost2010Prop45
280
     0
102
RTVSPost2010PropOp45
 70
     1
102
RTVSPost2010Prop46
 90
       50
102
RTVSPost2010PropOp46
 70
     1
102
RTVSPost2010Prop47
 90
       50
102
RTVSPost2010PropOp47
 70
     1
102
RTVSPost2010Prop48
 90
       50
102
RTVSPost2010PropOp48
 70
     1
102
RTVSPost2010Prop49
280
     0
102
RTVSPost2010PropOp49
 70
     1
102
RTVSPost2010Prop50
 90
       50
102
RTVSPost2010PropOp50
 70
     1
102
RTVSPost2010Prop51ColorIndex
 90
      256
102
RTVSPost2010Prop51ColorRGB
 90
-16777216
102
RTVSPost2010PropOp51
 70
     0
102
RTVSPost2010Prop52
140
1.0
102
RTVSPost2010PropOp52
 70
     0
102
RTVSPost2010Prop53
 90
        2
102
RTVSPost2010PropOp53
 70
     1
102
RTVSPost2010Prop54
  1
strokes_ogs.tif
102
RTVSPost2010PropOp54
 70
     1
102
RTVSPost2010Prop55
280
     0
102
RTVSPost2010PropOp55
 70
     1
102
RTVSPost2010Prop56
140
1.0
102
RTVSPost2010PropOp56
 70
     1
102
RTVSPost2010Prop57
140
1.0
102
RTVSPost2010PropOp57
 70
     1
102
RTVSPropertyOp0
 70
     1
102
RTVSPropertyOp1
 70
     1
102
RTVSPropertyOp2
 70
     1
102
RTVSPropertyOp3
 70
     1
102
RTVSPropertyOp4
 70
     1
102
RTVSPropertyOp5
 70
     1
102
RTVSPropertyOp6
 70
     1
102
RTVSPropertyOp7
 70
     1
102
RTVSPropertyOp8
 70
     1
102
RTVSPropertyOp9
 70
     1
102
RTVSPropertyOp10
 70
     1
102
RTVSPropertyOp11
 70
     1
102
RTVSPropertyOp12
 70
     1
102
RTVSPropertyOp13
 70
     1
102
RTVSPropertyOp14
 70
     1
102
RTVSPropertyOp15
 70
     1
102
RTVSPropertyOp16
 70
     1
102
RTVSPropertyOp17
 70
     1
102
RTVSPropertyOp18
 70
     1
102
RTVSPropertyOp19
 70
     1
102
RTVSPropertyOp20
 70
     1
102
RTVSPropertyOp21
 70
     1
102
RTVSPropertyOp22
 70
     1
102
RTVSPropertyOp23
 70
     1
102
RTVSPropertyOp24
 70
     1
102
RTVSPropertyOp25
 70
     1
102
RTVSPropertyOp26
 70
     1
102
RTVSPropertyOp27
 70
     1
102
RTVSPropertyOp28
 70
     1
102
RTVSPropertyOp29
 70
     1
102
RTVSPropertyOp30
 70
     1
102
RTVSPropertyOp31
 70
     1
102
RTVSPropertyOp32
 70
     1
102
RTVSPropertyOp33
 70
     1
102
RTVSPropertyOp34
 70
     1
102
RTVSPropertyOp35
 70
     1
102
RTVSPropertyOp36
 70
     1
102
RTVSPropertyOp37
 70
     1
102
RTVSPropertyOp38
 70
     1
102
RTVSPropertyOp39
 70
     1
102
RTVSPropertyOp40
 70
     1
102
RTVSPropertyOp41
 70
     1
102
RTVSPropertyOp42
 70
     1
102
RTVSPropertyOp43
 70
     1
102
RTVSPropertyOp44
 70
     1
102
RTVSPropertyOp45
 70
     1
102
RTVSPropertyOp46
 70
     1
102
RTVSPropertyOp47
 70
     1
102
RTVSPropertyOp48
 70
     1
102
RTVSPropertyOp49
 70
     1
102
RTVSPropertyOp50
 70
     1
102
RTVSPropertyOp51
 70
     0
102
RTVSPropertyOp52
 70
     0
102
RTVSPropertyOp53
 70
     1
102
RTVSPropertyOp54
 70
     1
102
RTVSPropertyOp55
 70
     1
102
RTVSPropertyOp56
 70
     1
102
RTVSPropertyOp57
 70
     1
102
RTVSPropertyOp58
 70
     1
102
RTVSPropertyOp59
 70
     1
102
RTVSPropertyOp60
 70
     1
102
RTVSPropertyOp61
 70
     1
102
RTVSPropertyOp62
 70
     1
  0
XRECORD
  5
287C
102
{ACAD_REACTORS
330
287B
102
}
330
287B
100
AcDbXrecord
280
     1
102
RTVSPost2010Prop28
280
     0
102
RTVSPost2010PropOp28
 70
     1
102
RTVSPost2010Prop29
280
     1
102
RTVSPost2010PropOp29
 70
     1
102
RTVSPost2010Prop30
280
     1
102
RTVSPost2010PropOp30
 70
     1
102
RTVSPost2010Prop31
280
     0
102
RTVSPost2010PropOp31
 70
     1
102
RTVSPost2010Prop32
280
     0
102
RTVSPost2010PropOp32
 70
     1
102
RTVSPost2010Prop33
280
     0
102
RTVSPost2010PropOp33
 70
     1
102
RTVSPost2010Prop34
280
     0
102
RTVSPost2010PropOp34
 70
     1
102
RTVSPost2010Prop35
280
     0
102
RTVSPost2010PropOp35
 70
     1
102
RTVSPost2010Prop36
280
     0
102
RTVSPost2010PropOp36
 70
     1
102
RTVSPost2010Prop37
 90
       50
102
RTVSPost2010PropOp37
 70
     1
102
RTVSPost2010Prop38
140
0.0
102
RTVSPost2010PropOp38
 70
     1
102
RTVSPost2010Prop39
140
1.0
102
RTVSPost2010PropOp39
 70
     1
102
RTVSPost2010Prop40
 90
        0
102
RTVSPost2010PropOp40
 70
     1
102
RTVSPost2010Prop41ColorIndex
 90
       18
102
RTVSPost2010Prop41ColorRGB
 90
        0
102
RTVSPost2010PropOp41
 70
     1
102
RTVSPost2010Prop42
 90
       50
102
RTVSPost2010PropOp42
 70
     1
102
RTVSPost2010Prop43
 90
        3
102
RTVSPost2010PropOp43
 70
     1
102
RTVSPost2010Prop44ColorIndex
 90
        5
102
RTVSPost2010Prop44ColorRGB
 90
      255
102
RTVSPost2010PropOp44
 70
     1
102
RTVSPost2010Prop45
280
     0
102
RTVSPost2010PropOp45
 70
     1
102
RTVSPost2010Prop46
 90
       50
102
RTVSPost2010PropOp46
 70
     1
102
RTVSPost2010Prop47
 90
       50
102
RTVSPost2010PropOp47
 70
     1
102
RTVSPost2010Prop48
 90
       50
102
RTVSPost2010PropOp48
 70
     1
102
RTVSPost2010Prop49
280
     0
102
RTVSPost2010PropOp49
 70
     1
102
RTVSPost2010Prop50
 90
       50
102
RTVSPost2010PropOp50
 70
     1
102
RTVSPost2010Prop51ColorIndex
 90
      256
102
RTVSPost2010Prop51ColorRGB
 90
-16777216
102
RTVSPost2010PropOp51
 70
     0
102
RTVSPost2010Prop52
140
1.0
102
RTVSPost2010PropOp52
 70
     0
102
RTVSPost2010Prop53
 90
        2
102
RTVSPost2010PropOp53
 70
     1
102
RTVSPost2010Prop54
  1
strokes_ogs.tif
102
RTVSPost2010PropOp54
 70
     1
102
RTVSPost2010Prop55
280
     0
102
RTVSPost2010PropOp55
 70
     1
102
RTVSPost2010Prop56
140
1.0
102
RTVSPost2010PropOp56
 70
     1
102
RTVSPost2010Prop57
140
1.0
102
RTVSPost2010PropOp57
 70
     1
102
RTVSPropertyOp0
 70
     1
102
RTVSPropertyOp1
 70
     1
102
RTVSPropertyOp2
 70
     1
102
RTVSPropertyOp3
 70
     1
102
RTVSPropertyOp4
 70
     1
102
RTVSPropertyOp5
 70
     1
102
RTVSPropertyOp6
 70
     1
102
RTVSPropertyOp7
 70
     1
102
RTVSPropertyOp8
 70
     1
102
RTVSPropertyOp9
 70
     1
102
RTVSPropertyOp10
 70
     1
102
RTVSPropertyOp11
 70
     1
102
RTVSPropertyOp12
 70
     1
102
RTVSPropertyOp13
 70
     1
102
RTVSPropertyOp14
 70
     1
102
RTVSPropertyOp15
 70
     1
102
RTVSPropertyOp16
 70
     1
102
RTVSPropertyOp17
 70
     1
102
RTVSPropertyOp18
 70
     1
102
RTVSPropertyOp19
 70
     1
102
RTVSPropertyOp20
 70
     1
102
RTVSPropertyOp21
 70
     1
102
RTVSPropertyOp22
 70
     1
102
RTVSPropertyOp23
 70
     1
102
RTVSPropertyOp24
 70
     1
102
RTVSPropertyOp25
 70
     1
102
RTVSPropertyOp26
 70
     1
102
RTVSPropertyOp27
 70
     1
102
RTVSPropertyOp28
 70
     1
102
RTVSPropertyOp29
 70
     1
102
RTVSPropertyOp30
 70
     1
102
RTVSPropertyOp31
 70
     1
102
RTVSPropertyOp32
 70
     1
102
RTVSPropertyOp33
 70
     1
102
RTVSPropertyOp34
 70
     1
102
RTVSPropertyOp35
 70
     1
102
RTVSPropertyOp36
 70
     1
102
RTVSPropertyOp37
 70
     1
102
RTVSPropertyOp38
 70
     1
102
RTVSPropertyOp39
 70
     1
102
RTVSPropertyOp40
 70
     1
102
RTVSPropertyOp41
 70
     1
102
RTVSPropertyOp42
 70
     1
102
RTVSPropertyOp43
 70
     1
102
RTVSPropertyOp44
 70
     1
102
RTVSPropertyOp45
 70
     1
102
RTVSPropertyOp46
 70
     1
102
RTVSPropertyOp47
 70
     1
102
RTVSPropertyOp48
 70
     1
102
RTVSPropertyOp49
 70
     1
102
RTVSPropertyOp50
 70
     1
102
RTVSPropertyOp51
 70
     0
102
RTVSPropertyOp52
 70
     0
102
RTVSPropertyOp53
 70
     1
102
RTVSPropertyOp54
 70
     1
102
RTVSPropertyOp55
 70
     1
102
RTVSPropertyOp56
 70
     1
102
RTVSPropertyOp57
 70
     1
102
RTVSPropertyOp58
 70
     1
102
RTVSPropertyOp59
 70
     1
102
RTVSPropertyOp60
 70
     1
102
RTVSPropertyOp61
 70
     1
102
RTVSPropertyOp62
 70
     1
  0
XRECORD
  5
2884
102
{ACAD_REACTORS
330
2883
102
}
330
2883
100
AcDbXrecord
280
     1
102
RTVSPost2010Prop28
280
     0
102
RTVSPost2010PropOp28
 70
     1
102
RTVSPost2010Prop29
280
     1
102
RTVSPost2010PropOp29
 70
     1
102
RTVSPost2010Prop30
280
     1
102
RTVSPost2010PropOp30
 70
     1
102
RTVSPost2010Prop31
280
     0
102
RTVSPost2010PropOp31
 70
     1
102
RTVSPost2010Prop32
280
     0
102
RTVSPost2010PropOp32
 70
     1
102
RTVSPost2010Prop33
280
     0
102
RTVSPost2010PropOp33
 70
     1
102
RTVSPost2010Prop34
280
     0
102
RTVSPost2010PropOp34
 70
     1
102
RTVSPost2010Prop35
280
     0
102
RTVSPost2010PropOp35
 70
     1
102
RTVSPost2010Prop36
280
     0
102
RTVSPost2010PropOp36
 70
     1
102
RTVSPost2010Prop37
 90
       50
102
RTVSPost2010PropOp37
 70
     1
102
RTVSPost2010Prop38
140
0.0
102
RTVSPost2010PropOp38
 70
     1
102
RTVSPost2010Prop39
140
1.0
102
RTVSPost2010PropOp39
 70
     1
102
RTVSPost2010Prop40
 90
        0
102
RTVSPost2010PropOp40
 70
     1
102
RTVSPost2010Prop41ColorIndex
 90
       18
102
RTVSPost2010Prop41ColorRGB
 90
        0
102
RTVSPost2010PropOp41
 70
     1
102
RTVSPost2010Prop42
 90
       50
102
RTVSPost2010PropOp42
 70
     1
102
RTVSPost2010Prop43
 90
        3
102
RTVSPost2010PropOp43
 70
     1
102
RTVSPost2010Prop44ColorIndex
 90
        5
102
RTVSPost2010Prop44ColorRGB
 90
      255
102
RTVSPost2010PropOp44
 70
     1
102
RTVSPost2010Prop45
280
     0
102
RTVSPost2010PropOp45
 70
     1
102
RTVSPost2010Prop46
 90
       50
102
RTVSPost2010PropOp46
 70
     1
102
RTVSPost2010Prop47
 90
       50
102
RTVSPost2010PropOp47
 70
     1
102
RTVSPost2010Prop48
 90
       50
102
RTVSPost2010PropOp48
 70
     1
102
RTVSPost2010Prop49
280
     0
102
RTVSPost2010PropOp49
 70
     1
102
RTVSPost2010Prop50
 90
       50
102
RTVSPost2010PropOp50
 70
     1
102
RTVSPost2010Prop51ColorIndex
 90
      256
102
RTVSPost2010Prop51ColorRGB
 90
-16777216
102
RTVSPost2010PropOp51
 70
     0
102
RTVSPost2010Prop52
140
1.0
102
RTVSPost2010PropOp52
 70
     0
102
RTVSPost2010Prop53
 90
        2
102
RTVSPost2010PropOp53
 70
     1
102
RTVSPost2010Prop54
  1
strokes_ogs.tif
102
RTVSPost2010PropOp54
 70
     1
102
RTVSPost2010Prop55
280
     0
102
RTVSPost2010PropOp55
 70
     1
102
RTVSPost2010Prop56
140
1.0
102
RTVSPost2010PropOp56
 70
     1
102
RTVSPost2010Prop57
140
1.0
102
RTVSPost2010PropOp57
 70
     1
102
RTVSPropertyOp0
 70
     1
102
RTVSPropertyOp1
 70
     1
102
RTVSPropertyOp2
 70
     1
102
RTVSPropertyOp3
 70
     1
102
RTVSPropertyOp4
 70
     1
102
RTVSPropertyOp5
 70
     1
102
RTVSPropertyOp6
 70
     1
102
RTVSPropertyOp7
 70
     1
102
RTVSPropertyOp8
 70
     1
102
RTVSPropertyOp9
 70
     1
102
RTVSPropertyOp10
 70
     1
102
RTVSPropertyOp11
 70
     1
102
RTVSPropertyOp12
 70
     1
102
RTVSPropertyOp13
 70
     1
102
RTVSPropertyOp14
 70
     1
102
RTVSPropertyOp15
 70
     1
102
RTVSPropertyOp16
 70
     1
102
RTVSPropertyOp17
 70
     1
102
RTVSPropertyOp18
 70
     1
102
RTVSPropertyOp19
 70
     1
102
RTVSPropertyOp20
 70
     1
102
RTVSPropertyOp21
 70
     1
102
RTVSPropertyOp22
 70
     1
102
RTVSPropertyOp23
 70
     1
102
RTVSPropertyOp24
 70
     1
102
RTVSPropertyOp25
 70
     1
102
RTVSPropertyOp26
 70
     1
102
RTVSPropertyOp27
 70
     1
102
RTVSPropertyOp28
 70
     1
102
RTVSPropertyOp29
 70
     1
102
RTVSPropertyOp30
 70
     1
102
RTVSPropertyOp31
 70
     1
102
RTVSPropertyOp32
 70
     1
102
RTVSPropertyOp33
 70
     1
102
RTVSPropertyOp34
 70
     1
102
RTVSPropertyOp35
 70
     1
102
RTVSPropertyOp36
 70
     1
102
RTVSPropertyOp37
 70
     1
102
RTVSPropertyOp38
 70
     1
102
RTVSPropertyOp39
 70
     1
102
RTVSPropertyOp40
 70
     1
102
RTVSPropertyOp41
 70
     1
102
RTVSPropertyOp42
 70
     1
102
RTVSPropertyOp43
 70
     1
102
RTVSPropertyOp44
 70
     1
102
RTVSPropertyOp45
 70
     1
102
RTVSPropertyOp46
 70
     1
102
RTVSPropertyOp47
 70
     1
102
RTVSPropertyOp48
 70
     1
102
RTVSPropertyOp49
 70
     1
102
RTVSPropertyOp50
 70
     1
102
RTVSPropertyOp51
 70
     0
102
RTVSPropertyOp52
 70
     0
102
RTVSPropertyOp53
 70
     1
102
RTVSPropertyOp54
 70
     1
102
RTVSPropertyOp55
 70
     1
102
RTVSPropertyOp56
 70
     1
102
RTVSPropertyOp57
 70
     1
102
RTVSPropertyOp58
 70
     1
102
RTVSPropertyOp59
 70
     1
102
RTVSPropertyOp60
 70
     1
102
RTVSPropertyOp61
 70
     1
102
RTVSPropertyOp62
 70
     1
  0
XRECORD
  5
28A0
102
{ACAD_REACTORS
330
289F
102
}
330
289F
100
AcDbXrecord
280
     1
102
RTVSPost2010Prop28
280
     0
102
RTVSPost2010PropOp28
 70
     0
102
RTVSPost2010Prop29
280
     1
102
RTVSPost2010PropOp29
 70
     0
102
RTVSPost2010Prop30
280
     1
102
RTVSPost2010PropOp30
 70
     0
102
RTVSPost2010Prop31
280
     0
102
RTVSPost2010PropOp31
 70
     0
102
RTVSPost2010Prop32
280
     0
102
RTVSPost2010PropOp32
 70
     0
102
RTVSPost2010Prop33
280
     0
102
RTVSPost2010PropOp33
 70
     0
102
RTVSPost2010Prop34
280
     0
102
RTVSPost2010PropOp34
 70
     0
102
RTVSPost2010Prop35
280
     0
102
RTVSPost2010PropOp35
 70
     0
102
RTVSPost2010Prop36
280
     0
102
RTVSPost2010PropOp36
 70
     0
102
RTVSPost2010Prop37
 90
       50
102
RTVSPost2010PropOp37
 70
     0
102
RTVSPost2010Prop38
140
0.0
102
RTVSPost2010PropOp38
 70
     0
102
RTVSPost2010Prop39
140
1.0
102
RTVSPost2010PropOp39
 70
     0
102
RTVSPost2010Prop40
 90
        0
102
RTVSPost2010PropOp40
 70
     0
102
RTVSPost2010Prop41ColorIndex
 90
       18
102
RTVSPost2010Prop41ColorRGB
 90
        0
102
RTVSPost2010PropOp41
 70
     0
102
RTVSPost2010Prop42
 90
       50
102
RTVSPost2010PropOp42
 70
     0
102
RTVSPost2010Prop43
 90
        3
102
RTVSPost2010PropOp43
 70
     0
102
RTVSPost2010Prop44ColorIndex
 90
        5
102
RTVSPost2010Prop44ColorRGB
 90
      255
102
RTVSPost2010PropOp44
 70
     0
102
RTVSPost2010Prop45
280
     0
102
RTVSPost2010PropOp45
 70
     0
102
RTVSPost2010Prop46
 90
       50
102
RTVSPost2010PropOp46
 70
     0
102
RTVSPost2010Prop47
 90
       50
102
RTVSPost2010PropOp47
 70
     0
102
RTVSPost2010Prop48
 90
       50
102
RTVSPost2010PropOp48
 70
     0
102
RTVSPost2010Prop49
280
     0
102
RTVSPost2010PropOp49
 70
     0
102
RTVSPost2010Prop50
 90
       50
102
RTVSPost2010PropOp50
 70
     0
102
RTVSPost2010Prop51ColorIndex
 90
      256
102
RTVSPost2010Prop51ColorRGB
 90
-16777216
102
RTVSPost2010PropOp51
 70
     0
102
RTVSPost2010Prop52
140
1.0
102
RTVSPost2010PropOp52
 70
     0
102
RTVSPost2010Prop53
 90
        2
102
RTVSPost2010PropOp53
 70
     0
102
RTVSPost2010Prop54
  1
strokes_ogs.tif
102
RTVSPost2010PropOp54
 70
     0
102
RTVSPost2010Prop55
280
     0
102
RTVSPost2010PropOp55
 70
     0
102
RTVSPost2010Prop56
140
1.0
102
RTVSPost2010PropOp56
 70
     0
102
RTVSPost2010Prop57
140
1.0
102
RTVSPost2010PropOp57
 70
     0
102
RTVSPropertyOp0
 70
     0
102
RTVSPropertyOp1
 70
     0
102
RTVSPropertyOp2
 70
     0
102
RTVSPropertyOp3
 70
     0
102
RTVSPropertyOp4
 70
     0
102
RTVSPropertyOp5
 70
     0
102
RTVSPropertyOp6
 70
     0
102
RTVSPropertyOp7
 70
     0
102
RTVSPropertyOp8
 70
     0
102
RTVSPropertyOp9
 70
     0
102
RTVSPropertyOp10
 70
     0
102
RTVSPropertyOp11
 70
     0
102
RTVSPropertyOp12
 70
     0
102
RTVSPropertyOp13
 70
     0
102
RTVSPropertyOp14
 70
     2
102
RTVSPropertyOp15
 70
     0
102
RTVSPropertyOp16
 70
     0
102
RTVSPropertyOp17
 70
     0
102
RTVSPropertyOp18
 70
     0
102
RTVSPropertyOp19
 70
     0
102
RTVSPropertyOp20
 70
     0
102
RTVSPropertyOp21
 70
     0
102
RTVSPropertyOp22
 70
     0
102
RTVSPropertyOp23
 70
     0
102
RTVSPropertyOp24
 70
     0
102
RTVSPropertyOp25
 70
     0
102
RTVSPropertyOp26
 70
     0
102
RTVSPropertyOp27
 70
     0
102
RTVSPropertyOp28
 70
     0
102
RTVSPropertyOp29
 70
     0
102
RTVSPropertyOp30
 70
     0
102
RTVSPropertyOp31
 70
     0
102
RTVSPropertyOp32
 70
     0
102
RTVSPropertyOp33
 70
     0
102
RTVSPropertyOp34
 70
     0
102
RTVSPropertyOp35
 70
     0
102
RTVSPropertyOp36
 70
     0
102
RTVSPropertyOp37
 70
     0
102
RTVSPropertyOp38
 70
     0
102
RTVSPropertyOp39
 70
     0
102
RTVSPropertyOp40
 70
     0
102
RTVSPropertyOp41
 70
     0
102
RTVSPropertyOp42
 70
     0
102
RTVSPropertyOp43
 70
     0
102
RTVSPropertyOp44
 70
     0
102
RTVSPropertyOp45
 70
     0
102
RTVSPropertyOp46
 70
     0
102
RTVSPropertyOp47
 70
     0
102
RTVSPropertyOp48
 70
     0
102
RTVSPropertyOp49
 70
     0
102
RTVSPropertyOp50
 70
     0
102
RTVSPropertyOp51
 70
     0
102
RTVSPropertyOp52
 70
     0
102
RTVSPropertyOp53
 70
     0
102
RTVSPropertyOp54
 70
     0
102
RTVSPropertyOp55
 70
     0
102
RTVSPropertyOp56
 70
     0
102
RTVSPropertyOp57
 70
     0
102
RTVSPropertyOp58
 70
     0
102
RTVSPropertyOp59
 70
     0
102
RTVSPropertyOp60
 70
     0
102
RTVSPropertyOp61
 70
     0
102
RTVSPropertyOp62
 70
     0
  0
XRECORD
  5
2890
102
{ACAD_REACTORS
330
288F
102
}
330
288F
100
AcDbXrecord
280
     1
102
RTVSPost2010Prop28
280
     0
102
RTVSPost2010PropOp28
 70
     1
102
RTVSPost2010Prop29
280
     1
102
RTVSPost2010PropOp29
 70
     1
102
RTVSPost2010Prop30
280
     1
102
RTVSPost2010PropOp30
 70
     1
102
RTVSPost2010Prop31
280
     0
102
RTVSPost2010PropOp31
 70
     1
102
RTVSPost2010Prop32
280
     0
102
RTVSPost2010PropOp32
 70
     1
102
RTVSPost2010Prop33
280
     0
102
RTVSPost2010PropOp33
 70
     1
102
RTVSPost2010Prop34
280
     0
102
RTVSPost2010PropOp34
 70
     1
102
RTVSPost2010Prop35
280
     0
102
RTVSPost2010PropOp35
 70
     1
102
RTVSPost2010Prop36
280
     0
102
RTVSPost2010PropOp36
 70
     1
102
RTVSPost2010Prop37
 90
       50
102
RTVSPost2010PropOp37
 70
     1
102
RTVSPost2010Prop38
140
0.0
102
RTVSPost2010PropOp38
 70
     1
102
RTVSPost2010Prop39
140
1.0
102
RTVSPost2010PropOp39
 70
     1
102
RTVSPost2010Prop40
 90
        0
102
RTVSPost2010PropOp40
 70
     1
102
RTVSPost2010Prop41ColorIndex
 90
       18
102
RTVSPost2010Prop41ColorRGB
 90
        0
102
RTVSPost2010PropOp41
 70
     1
102
RTVSPost2010Prop42
 90
       50
102
RTVSPost2010PropOp42
 70
     1
102
RTVSPost2010Prop43
 90
        3
102
RTVSPost2010PropOp43
 70
     1
102
RTVSPost2010Prop44ColorIndex
 90
        5
102
RTVSPost2010Prop44ColorRGB
 90
      255
102
RTVSPost2010PropOp44
 70
     1
102
RTVSPost2010Prop45
280
     0
102
RTVSPost2010PropOp45
 70
     1
102
RTVSPost2010Prop46
 90
       50
102
RTVSPost2010PropOp46
 70
     1
102
RTVSPost2010Prop47
 90
       50
102
RTVSPost2010PropOp47
 70
     1
102
RTVSPost2010Prop48
 90
       50
102
RTVSPost2010PropOp48
 70
     1
102
RTVSPost2010Prop49
280
     0
102
RTVSPost2010PropOp49
 70
     1
102
RTVSPost2010Prop50
 90
       50
102
RTVSPost2010PropOp50
 70
     1
102
RTVSPost2010Prop51ColorIndex
 90
      256
102
RTVSPost2010Prop51ColorRGB
 90
-16777216
102
RTVSPost2010PropOp51
 70
     0
102
RTVSPost2010Prop52
140
1.0
102
RTVSPost2010PropOp52
 70
     0
102
RTVSPost2010Prop53
 90
        2
102
RTVSPost2010PropOp53
 70
     1
102
RTVSPost2010Prop54
  1
strokes_ogs.tif
102
RTVSPost2010PropOp54
 70
     1
102
RTVSPost2010Prop55
280
     0
102
RTVSPost2010PropOp55
 70
     1
102
RTVSPost2010Prop56
140
1.0
102
RTVSPost2010PropOp56
 70
     1
102
RTVSPost2010Prop57
140
1.0
102
RTVSPost2010PropOp57
 70
     1
102
RTVSPropertyOp0
 70
     1
102
RTVSPropertyOp1
 70
     1
102
RTVSPropertyOp2
 70
     1
102
RTVSPropertyOp3
 70
     1
102
RTVSPropertyOp4
 70
     1
102
RTVSPropertyOp5
 70
     1
102
RTVSPropertyOp6
 70
     1
102
RTVSPropertyOp7
 70
     1
102
RTVSPropertyOp8
 70
     1
102
RTVSPropertyOp9
 70
     1
102
RTVSPropertyOp10
 70
     1
102
RTVSPropertyOp11
 70
     1
102
RTVSPropertyOp12
 70
     1
102
RTVSPropertyOp13
 70
     1
102
RTVSPropertyOp14
 70
     1
102
RTVSPropertyOp15
 70
     1
102
RTVSPropertyOp16
 70
     1
102
RTVSPropertyOp17
 70
     1
102
RTVSPropertyOp18
 70
     1
102
RTVSPropertyOp19
 70
     1
102
RTVSPropertyOp20
 70
     1
102
RTVSPropertyOp21
 70
     1
102
RTVSPropertyOp22
 70
     1
102
RTVSPropertyOp23
 70
     1
102
RTVSPropertyOp24
 70
     1
102
RTVSPropertyOp25
 70
     1
102
RTVSPropertyOp26
 70
     1
102
RTVSPropertyOp27
 70
     1
102
RTVSPropertyOp28
 70
     1
102
RTVSPropertyOp29
 70
     1
102
RTVSPropertyOp30
 70
     1
102
RTVSPropertyOp31
 70
     1
102
RTVSPropertyOp32
 70
     1
102
RTVSPropertyOp33
 70
     1
102
RTVSPropertyOp34
 70
     1
102
RTVSPropertyOp35
 70
     1
102
RTVSPropertyOp36
 70
     1
102
RTVSPropertyOp37
 70
     1
102
RTVSPropertyOp38
 70
     1
102
RTVSPropertyOp39
 70
     1
102
RTVSPropertyOp40
 70
     1
102
RTVSPropertyOp41
 70
     1
102
RTVSPropertyOp42
 70
     1
102
RTVSPropertyOp43
 70
     1
102
RTVSPropertyOp44
 70
     1
102
RTVSPropertyOp45
 70
     1
102
RTVSPropertyOp46
 70
     1
102
RTVSPropertyOp47
 70
     1
102
RTVSPropertyOp48
 70
     1
102
RTVSPropertyOp49
 70
     1
102
RTVSPropertyOp50
 70
     1
102
RTVSPropertyOp51
 70
     0
102
RTVSPropertyOp52
 70
     0
102
RTVSPropertyOp53
 70
     1
102
RTVSPropertyOp54
 70
     1
102
RTVSPropertyOp55
 70
     1
102
RTVSPropertyOp56
 70
     1
102
RTVSPropertyOp57
 70
     1
102
RTVSPropertyOp58
 70
     1
102
RTVSPropertyOp59
 70
     1
102
RTVSPropertyOp60
 70
     1
102
RTVSPropertyOp61
 70
     1
102
RTVSPropertyOp62
 70
     1
  0
XRECORD
  5
28A2
102
{ACAD_REACTORS
330
28A1
102
}
330
28A1
100
AcDbXrecord
280
     1
102
RTVSPost2010Prop28
280
     0
102
RTVSPost2010PropOp28
 70
     0
102
RTVSPost2010Prop29
280
     1
102
RTVSPost2010PropOp29
 70
     0
102
RTVSPost2010Prop30
280
     1
102
RTVSPost2010PropOp30
 70
     0
102
RTVSPost2010Prop31
280
     0
102
RTVSPost2010PropOp31
 70
     0
102
RTVSPost2010Prop32
280
     0
102
RTVSPost2010PropOp32
 70
     0
102
RTVSPost2010Prop33
280
     0
102
RTVSPost2010PropOp33
 70
     0
102
RTVSPost2010Prop34
280
     0
102
RTVSPost2010PropOp34
 70
     0
102
RTVSPost2010Prop35
280
     0
102
RTVSPost2010PropOp35
 70
     0
102
RTVSPost2010Prop36
280
     0
102
RTVSPost2010PropOp36
 70
     0
102
RTVSPost2010Prop37
 90
       50
102
RTVSPost2010PropOp37
 70
     0
102
RTVSPost2010Prop38
140
0.0
102
RTVSPost2010PropOp38
 70
     0
102
RTVSPost2010Prop39
140
1.0
102
RTVSPost2010PropOp39
 70
     0
102
RTVSPost2010Prop40
 90
        0
102
RTVSPost2010PropOp40
 70
     0
102
RTVSPost2010Prop41ColorIndex
 90
       18
102
RTVSPost2010Prop41ColorRGB
 90
        0
102
RTVSPost2010PropOp41
 70
     0
102
RTVSPost2010Prop42
 90
       50
102
RTVSPost2010PropOp42
 70
     0
102
RTVSPost2010Prop43
 90
        3
102
RTVSPost2010PropOp43
 70
     0
102
RTVSPost2010Prop44ColorIndex
 90
        5
102
RTVSPost2010Prop44ColorRGB
 90
      255
102
RTVSPost2010PropOp44
 70
     0
102
RTVSPost2010Prop45
280
     0
102
RTVSPost2010PropOp45
 70
     0
102
RTVSPost2010Prop46
 90
       50
102
RTVSPost2010PropOp46
 70
     0
102
RTVSPost2010Prop47
 90
       50
102
RTVSPost2010PropOp47
 70
     0
102
RTVSPost2010Prop48
 90
       50
102
RTVSPost2010PropOp48
 70
     0
102
RTVSPost2010Prop49
280
     0
102
RTVSPost2010PropOp49
 70
     0
102
RTVSPost2010Prop50
 90
       50
102
RTVSPost2010PropOp50
 70
     0
102
RTVSPost2010Prop51ColorIndex
 90
      256
102
RTVSPost2010Prop51ColorRGB
 90
-16777216
102
RTVSPost2010PropOp51
 70
     0
102
RTVSPost2010Prop52
140
1.0
102
RTVSPost2010PropOp52
 70
     0
102
RTVSPost2010Prop53
 90
        2
102
RTVSPost2010PropOp53
 70
     0
102
RTVSPost2010Prop54
  1
strokes_ogs.tif
102
RTVSPost2010PropOp54
 70
     0
102
RTVSPost2010Prop55
280
     0
102
RTVSPost2010PropOp55
 70
     0
102
RTVSPost2010Prop56
140
1.0
102
RTVSPost2010PropOp56
 70
     0
102
RTVSPost2010Prop57
140
1.0
102
RTVSPost2010PropOp57
 70
     0
102
RTVSPropertyOp0
 70
     0
102
RTVSPropertyOp1
 70
     0
102
RTVSPropertyOp2
 70
     0
102
RTVSPropertyOp3
 70
     0
102
RTVSPropertyOp4
 70
     0
102
RTVSPropertyOp5
 70
     0
102
RTVSPropertyOp6
 70
     0
102
RTVSPropertyOp7
 70
     0
102
RTVSPropertyOp8
 70
     0
102
RTVSPropertyOp9
 70
     0
102
RTVSPropertyOp10
 70
     0
102
RTVSPropertyOp11
 70
     0
102
RTVSPropertyOp12
 70
     0
102
RTVSPropertyOp13
 70
     0
102
RTVSPropertyOp14
 70
     2
102
RTVSPropertyOp15
 70
     0
102
RTVSPropertyOp16
 70
     0
102
RTVSPropertyOp17
 70
     0
102
RTVSPropertyOp18
 70
     0
102
RTVSPropertyOp19
 70
     0
102
RTVSPropertyOp20
 70
     0
102
RTVSPropertyOp21
 70
     0
102
RTVSPropertyOp22
 70
     0
102
RTVSPropertyOp23
 70
     0
102
RTVSPropertyOp24
 70
     0
102
RTVSPropertyOp25
 70
     0
102
RTVSPropertyOp26
 70
     0
102
RTVSPropertyOp27
 70
     0
102
RTVSPropertyOp28
 70
     0
102
RTVSPropertyOp29
 70
     0
102
RTVSPropertyOp30
 70
     0
102
RTVSPropertyOp31
 70
     0
102
RTVSPropertyOp32
 70
     0
102
RTVSPropertyOp33
 70
     0
102
RTVSPropertyOp34
 70
     0
102
RTVSPropertyOp35
 70
     0
102
RTVSPropertyOp36
 70
     0
102
RTVSPropertyOp37
 70
     0
102
RTVSPropertyOp38
 70
     0
102
RTVSPropertyOp39
 70
     0
102
RTVSPropertyOp40
 70
     0
102
RTVSPropertyOp41
 70
     0
102
RTVSPropertyOp42
 70
     0
102
RTVSPropertyOp43
 70
     0
102
RTVSPropertyOp44
 70
     0
102
RTVSPropertyOp45
 70
     0
102
RTVSPropertyOp46
 70
     0
102
RTVSPropertyOp47
 70
     0
102
RTVSPropertyOp48
 70
     0
102
RTVSPropertyOp49
 70
     0
102
RTVSPropertyOp50
 70
     0
102
RTVSPropertyOp51
 70
     0
102
RTVSPropertyOp52
 70
     0
102
RTVSPropertyOp53
 70
     0
102
RTVSPropertyOp54
 70
     0
102
RTVSPropertyOp55
 70
     0
102
RTVSPropertyOp56
 70
     0
102
RTVSPropertyOp57
 70
     0
102
RTVSPropertyOp58
 70
     0
102
RTVSPropertyOp59
 70
     0
102
RTVSPropertyOp60
 70
     0
102
RTVSPropertyOp61
 70
     0
102
RTVSPropertyOp62
 70
     0
  0
XRECORD
  5
2888
102
{ACAD_REACTORS
330
2887
102
}
330
2887
100
AcDbXrecord
280
     1
102
RTVSPost2010Prop28
280
     0
102
RTVSPost2010PropOp28
 70
     1
102
RTVSPost2010Prop29
280
     1
102
RTVSPost2010PropOp29
 70
     1
102
RTVSPost2010Prop30
280
     1
102
RTVSPost2010PropOp30
 70
     1
102
RTVSPost2010Prop31
280
     0
102
RTVSPost2010PropOp31
 70
     1
102
RTVSPost2010Prop32
280
     0
102
RTVSPost2010PropOp32
 70
     1
102
RTVSPost2010Prop33
280
     0
102
RTVSPost2010PropOp33
 70
     1
102
RTVSPost2010Prop34
280
     0
102
RTVSPost2010PropOp34
 70
     1
102
RTVSPost2010Prop35
280
     0
102
RTVSPost2010PropOp35
 70
     1
102
RTVSPost2010Prop36
280
     0
102
RTVSPost2010PropOp36
 70
     1
102
RTVSPost2010Prop37
 90
       50
102
RTVSPost2010PropOp37
 70
     1
102
RTVSPost2010Prop38
140
0.0
102
RTVSPost2010PropOp38
 70
     1
102
RTVSPost2010Prop39
140
1.0
102
RTVSPost2010PropOp39
 70
     1
102
RTVSPost2010Prop40
 90
        0
102
RTVSPost2010PropOp40
 70
     1
102
RTVSPost2010Prop41ColorIndex
 90
       18
102
RTVSPost2010Prop41ColorRGB
 90
        0
102
RTVSPost2010PropOp41
 70
     1
102
RTVSPost2010Prop42
 90
       50
102
RTVSPost2010PropOp42
 70
     1
102
RTVSPost2010Prop43
 90
        3
102
RTVSPost2010PropOp43
 70
     1
102
RTVSPost2010Prop44ColorIndex
 90
        5
102
RTVSPost2010Prop44ColorRGB
 90
      255
102
RTVSPost2010PropOp44
 70
     1
102
RTVSPost2010Prop45
280
     0
102
RTVSPost2010PropOp45
 70
     1
102
RTVSPost2010Prop46
 90
       50
102
RTVSPost2010PropOp46
 70
     1
102
RTVSPost2010Prop47
 90
       50
102
RTVSPost2010PropOp47
 70
     1
102
RTVSPost2010Prop48
 90
       50
102
RTVSPost2010PropOp48
 70
     1
102
RTVSPost2010Prop49
280
     0
102
RTVSPost2010PropOp49
 70
     1
102
RTVSPost2010Prop50
 90
       50
102
RTVSPost2010PropOp50
 70
     1
102
RTVSPost2010Prop51ColorIndex
 90
      256
102
RTVSPost2010Prop51ColorRGB
 90
-16777216
102
RTVSPost2010PropOp51
 70
     0
102
RTVSPost2010Prop52
140
1.0
102
RTVSPost2010PropOp52
 70
     0
102
RTVSPost2010Prop53
 90
        2
102
RTVSPost2010PropOp53
 70
     1
102
RTVSPost2010Prop54
  1
strokes_ogs.tif
102
RTVSPost2010PropOp54
 70
     1
102
RTVSPost2010Prop55
280
     0
102
RTVSPost2010PropOp55
 70
     1
102
RTVSPost2010Prop56
140
1.0
102
RTVSPost2010PropOp56
 70
     1
102
RTVSPost2010Prop57
140
1.0
102
RTVSPost2010PropOp57
 70
     1
102
RTVSPropertyOp0
 70
     1
102
RTVSPropertyOp1
 70
     1
102
RTVSPropertyOp2
 70
     1
102
RTVSPropertyOp3
 70
     1
102
RTVSPropertyOp4
 70
     1
102
RTVSPropertyOp5
 70
     1
102
RTVSPropertyOp6
 70
     1
102
RTVSPropertyOp7
 70
     1
102
RTVSPropertyOp8
 70
     1
102
RTVSPropertyOp9
 70
     1
102
RTVSPropertyOp10
 70
     1
102
RTVSPropertyOp11
 70
     1
102
RTVSPropertyOp12
 70
     1
102
RTVSPropertyOp13
 70
     1
102
RTVSPropertyOp14
 70
     1
102
RTVSPropertyOp15
 70
     1
102
RTVSPropertyOp16
 70
     1
102
RTVSPropertyOp17
 70
     1
102
RTVSPropertyOp18
 70
     1
102
RTVSPropertyOp19
 70
     1
102
RTVSPropertyOp20
 70
     1
102
RTVSPropertyOp21
 70
     1
102
RTVSPropertyOp22
 70
     1
102
RTVSPropertyOp23
 70
     1
102
RTVSPropertyOp24
 70
     1
102
RTVSPropertyOp25
 70
     1
102
RTVSPropertyOp26
 70
     1
102
RTVSPropertyOp27
 70
     1
102
RTVSPropertyOp28
 70
     1
102
RTVSPropertyOp29
 70
     1
102
RTVSPropertyOp30
 70
     1
102
RTVSPropertyOp31
 70
     1
102
RTVSPropertyOp32
 70
     1
102
RTVSPropertyOp33
 70
     1
102
RTVSPropertyOp34
 70
     1
102
RTVSPropertyOp35
 70
     1
102
RTVSPropertyOp36
 70
     1
102
RTVSPropertyOp37
 70
     1
102
RTVSPropertyOp38
 70
     1
102
RTVSPropertyOp39
 70
     1
102
RTVSPropertyOp40
 70
     1
102
RTVSPropertyOp41
 70
     1
102
RTVSPropertyOp42
 70
     1
102
RTVSPropertyOp43
 70
     1
102
RTVSPropertyOp44
 70
     1
102
RTVSPropertyOp45
 70
     1
102
RTVSPropertyOp46
 70
     1
102
RTVSPropertyOp47
 70
     1
102
RTVSPropertyOp48
 70
     1
102
RTVSPropertyOp49
 70
     1
102
RTVSPropertyOp50
 70
     1
102
RTVSPropertyOp51
 70
     0
102
RTVSPropertyOp52
 70
     0
102
RTVSPropertyOp53
 70
     1
102
RTVSPropertyOp54
 70
     1
102
RTVSPropertyOp55
 70
     1
102
RTVSPropertyOp56
 70
     1
102
RTVSPropertyOp57
 70
     1
102
RTVSPropertyOp58
 70
     1
102
RTVSPropertyOp59
 70
     1
102
RTVSPropertyOp60
 70
     1
102
RTVSPropertyOp61
 70
     1
102
RTVSPropertyOp62
 70
     1
  0
XRECORD
  5
289E
102
{ACAD_REACTORS
330
289D
102
}
330
289D
100
AcDbXrecord
280
     1
102
RTVSPost2010Prop28
280
     0
102
RTVSPost2010PropOp28
 70
     1
102
RTVSPost2010Prop29
280
     1
102
RTVSPost2010PropOp29
 70
     1
102
RTVSPost2010Prop30
280
     1
102
RTVSPost2010PropOp30
 70
     1
102
RTVSPost2010Prop31
280
     0
102
RTVSPost2010PropOp31
 70
     1
102
RTVSPost2010Prop32
280
     0
102
RTVSPost2010PropOp32
 70
     1
102
RTVSPost2010Prop33
280
     0
102
RTVSPost2010PropOp33
 70
     1
102
RTVSPost2010Prop34
280
     0
102
RTVSPost2010PropOp34
 70
     1
102
RTVSPost2010Prop35
280
     0
102
RTVSPost2010PropOp35
 70
     1
102
RTVSPost2010Prop36
280
     0
102
RTVSPost2010PropOp36
 70
     1
102
RTVSPost2010Prop37
 90
       50
102
RTVSPost2010PropOp37
 70
     1
102
RTVSPost2010Prop38
140
0.0
102
RTVSPost2010PropOp38
 70
     1
102
RTVSPost2010Prop39
140
1.0
102
RTVSPost2010PropOp39
 70
     1
102
RTVSPost2010Prop40
 90
        0
102
RTVSPost2010PropOp40
 70
     1
102
RTVSPost2010Prop41ColorIndex
 90
       18
102
RTVSPost2010Prop41ColorRGB
 90
        0
102
RTVSPost2010PropOp41
 70
     1
102
RTVSPost2010Prop42
 90
       50
102
RTVSPost2010PropOp42
 70
     1
102
RTVSPost2010Prop43
 90
        3
102
RTVSPost2010PropOp43
 70
     1
102
RTVSPost2010Prop44ColorIndex
 90
        5
102
RTVSPost2010Prop44ColorRGB
 90
      255
102
RTVSPost2010PropOp44
 70
     1
102
RTVSPost2010Prop45
280
     0
102
RTVSPost2010PropOp45
 70
     1
102
RTVSPost2010Prop46
 90
       50
102
RTVSPost2010PropOp46
 70
     1
102
RTVSPost2010Prop47
 90
       50
102
RTVSPost2010PropOp47
 70
     1
102
RTVSPost2010Prop48
 90
       50
102
RTVSPost2010PropOp48
 70
     1
102
RTVSPost2010Prop49
280
     0
102
RTVSPost2010PropOp49
 70
     1
102
RTVSPost2010Prop50
 90
       50
102
RTVSPost2010PropOp50
 70
     1
102
RTVSPost2010Prop51ColorIndex
 90
      256
102
RTVSPost2010Prop51ColorRGB
 90
-16777216
102
RTVSPost2010PropOp51
 70
     0
102
RTVSPost2010Prop52
140
1.0
102
RTVSPost2010PropOp52
 70
     0
102
RTVSPost2010Prop53
 90
        2
102
RTVSPost2010PropOp53
 70
     1
102
RTVSPost2010Prop54
  1
strokes_ogs.tif
102
RTVSPost2010PropOp54
 70
     1
102
RTVSPost2010Prop55
280
     0
102
RTVSPost2010PropOp55
 70
     1
102
RTVSPost2010Prop56
140
1.0
102
RTVSPost2010PropOp56
 70
     1
102
RTVSPost2010Prop57
140
1.0
102
RTVSPost2010PropOp57
 70
     1
102
RTVSPropertyOp0
 70
     1
102
RTVSPropertyOp1
 70
     1
102
RTVSPropertyOp2
 70
     1
102
RTVSPropertyOp3
 70
     1
102
RTVSPropertyOp4
 70
     1
102
RTVSPropertyOp5
 70
     1
102
RTVSPropertyOp6
 70
     1
102
RTVSPropertyOp7
 70
     1
102
RTVSPropertyOp8
 70
     1
102
RTVSPropertyOp9
 70
     1
102
RTVSPropertyOp10
 70
     1
102
RTVSPropertyOp11
 70
     1
102
RTVSPropertyOp12
 70
     1
102
RTVSPropertyOp13
 70
     1
102
RTVSPropertyOp14
 70
     1
102
RTVSPropertyOp15
 70
     1
102
RTVSPropertyOp16
 70
     1
102
RTVSPropertyOp17
 70
     1
102
RTVSPropertyOp18
 70
     1
102
RTVSPropertyOp19
 70
     1
102
RTVSPropertyOp20
 70
     1
102
RTVSPropertyOp21
 70
     1
102
RTVSPropertyOp22
 70
     1
102
RTVSPropertyOp23
 70
     1
102
RTVSPropertyOp24
 70
     1
102
RTVSPropertyOp25
 70
     1
102
RTVSPropertyOp26
 70
     1
102
RTVSPropertyOp27
 70
     1
102
RTVSPropertyOp28
 70
     1
102
RTVSPropertyOp29
 70
     1
102
RTVSPropertyOp30
 70
     1
102
RTVSPropertyOp31
 70
     1
102
RTVSPropertyOp32
 70
     1
102
RTVSPropertyOp33
 70
     1
102
RTVSPropertyOp34
 70
     1
102
RTVSPropertyOp35
 70
     1
102
RTVSPropertyOp36
 70
     1
102
RTVSPropertyOp37
 70
     1
102
RTVSPropertyOp38
 70
     1
102
RTVSPropertyOp39
 70
     1
102
RTVSPropertyOp40
 70
     1
102
RTVSPropertyOp41
 70
     1
102
RTVSPropertyOp42
 70
     1
102
RTVSPropertyOp43
 70
     1
102
RTVSPropertyOp44
 70
     1
102
RTVSPropertyOp45
 70
     1
102
RTVSPropertyOp46
 70
     1
102
RTVSPropertyOp47
 70
     1
102
RTVSPropertyOp48
 70
     1
102
RTVSPropertyOp49
 70
     1
102
RTVSPropertyOp50
 70
     1
102
RTVSPropertyOp51
 70
     0
102
RTVSPropertyOp52
 70
     0
102
RTVSPropertyOp53
 70
     1
102
RTVSPropertyOp54
 70
     1
102
RTVSPropertyOp55
 70
     1
102
RTVSPropertyOp56
 70
     1
102
RTVSPropertyOp57
 70
     1
102
RTVSPropertyOp58
 70
     1
102
RTVSPropertyOp59
 70
     1
102
RTVSPropertyOp60
 70
     1
102
RTVSPropertyOp61
 70
     1
102
RTVSPropertyOp62
 70
     1
  0
XRECORD
  5
289C
102
{ACAD_REACTORS
330
289B
102
}
330
289B
100
AcDbXrecord
280
     1
102
RTVSPost2010Prop28
280
     0
102
RTVSPost2010PropOp28
 70
     1
102
RTVSPost2010Prop29
280
     1
102
RTVSPost2010PropOp29
 70
     1
102
RTVSPost2010Prop30
280
     1
102
RTVSPost2010PropOp30
 70
     1
102
RTVSPost2010Prop31
280
     0
102
RTVSPost2010PropOp31
 70
     1
102
RTVSPost2010Prop32
280
     0
102
RTVSPost2010PropOp32
 70
     1
102
RTVSPost2010Prop33
280
     0
102
RTVSPost2010PropOp33
 70
     1
102
RTVSPost2010Prop34
280
     0
102
RTVSPost2010PropOp34
 70
     1
102
RTVSPost2010Prop35
280
     0
102
RTVSPost2010PropOp35
 70
     1
102
RTVSPost2010Prop36
280
     0
102
RTVSPost2010PropOp36
 70
     1
102
RTVSPost2010Prop37
 90
       50
102
RTVSPost2010PropOp37
 70
     1
102
RTVSPost2010Prop38
140
0.0
102
RTVSPost2010PropOp38
 70
     1
102
RTVSPost2010Prop39
140
1.0
102
RTVSPost2010PropOp39
 70
     1
102
RTVSPost2010Prop40
 90
        0
102
RTVSPost2010PropOp40
 70
     1
102
RTVSPost2010Prop41ColorIndex
 90
       18
102
RTVSPost2010Prop41ColorRGB
 90
        0
102
RTVSPost2010PropOp41
 70
     1
102
RTVSPost2010Prop42
 90
       50
102
RTVSPost2010PropOp42
 70
     1
102
RTVSPost2010Prop43
 90
        3
102
RTVSPost2010PropOp43
 70
     1
102
RTVSPost2010Prop44ColorIndex
 90
        5
102
RTVSPost2010Prop44ColorRGB
 90
      255
102
RTVSPost2010PropOp44
 70
     1
102
RTVSPost2010Prop45
280
     0
102
RTVSPost2010PropOp45
 70
     1
102
RTVSPost2010Prop46
 90
       50
102
RTVSPost2010PropOp46
 70
     1
102
RTVSPost2010Prop47
 90
       50
102
RTVSPost2010PropOp47
 70
     1
102
RTVSPost2010Prop48
 90
       50
102
RTVSPost2010PropOp48
 70
     1
102
RTVSPost2010Prop49
280
     0
102
RTVSPost2010PropOp49
 70
     1
102
RTVSPost2010Prop50
 90
       50
102
RTVSPost2010PropOp50
 70
     1
102
RTVSPost2010Prop51ColorIndex
 90
      256
102
RTVSPost2010Prop51ColorRGB
 90
-16777216
102
RTVSPost2010PropOp51
 70
     0
102
RTVSPost2010Prop52
140
1.0
102
RTVSPost2010PropOp52
 70
     0
102
RTVSPost2010Prop53
 90
        2
102
RTVSPost2010PropOp53
 70
     1
102
RTVSPost2010Prop54
  1
strokes_ogs.tif
102
RTVSPost2010PropOp54
 70
     1
102
RTVSPost2010Prop55
280
     0
102
RTVSPost2010PropOp55
 70
     1
102
RTVSPost2010Prop56
140
1.0
102
RTVSPost2010PropOp56
 70
     1
102
RTVSPost2010Prop57
140
1.0
102
RTVSPost2010PropOp57
 70
     1
102
RTVSPropertyOp0
 70
     1
102
RTVSPropertyOp1
 70
     1
102
RTVSPropertyOp2
 70
     1
102
RTVSPropertyOp3
 70
     1
102
RTVSPropertyOp4
 70
     1
102
RTVSPropertyOp5
 70
     1
102
RTVSPropertyOp6
 70
     1
102
RTVSPropertyOp7
 70
     1
102
RTVSPropertyOp8
 70
     1
102
RTVSPropertyOp9
 70
     1
102
RTVSPropertyOp10
 70
     1
102
RTVSPropertyOp11
 70
     1
102
RTVSPropertyOp12
 70
     1
102
RTVSPropertyOp13
 70
     1
102
RTVSPropertyOp14
 70
     1
102
RTVSPropertyOp15
 70
     1
102
RTVSPropertyOp16
 70
     1
102
RTVSPropertyOp17
 70
     1
102
RTVSPropertyOp18
 70
     1
102
RTVSPropertyOp19
 70
     1
102
RTVSPropertyOp20
 70
     1
102
RTVSPropertyOp21
 70
     1
102
RTVSPropertyOp22
 70
     1
102
RTVSPropertyOp23
 70
     1
102
RTVSPropertyOp24
 70
     1
102
RTVSPropertyOp25
 70
     1
102
RTVSPropertyOp26
 70
     1
102
RTVSPropertyOp27
 70
     1
102
RTVSPropertyOp28
 70
     1
102
RTVSPropertyOp29
 70
     1
102
RTVSPropertyOp30
 70
     1
102
RTVSPropertyOp31
 70
     1
102
RTVSPropertyOp32
 70
     1
102
RTVSPropertyOp33
 70
     1
102
RTVSPropertyOp34
 70
     1
102
RTVSPropertyOp35
 70
     1
102
RTVSPropertyOp36
 70
     1
102
RTVSPropertyOp37
 70
     1
102
RTVSPropertyOp38
 70
     1
102
RTVSPropertyOp39
 70
     1
102
RTVSPropertyOp40
 70
     1
102
RTVSPropertyOp41
 70
     1
102
RTVSPropertyOp42
 70
     1
102
RTVSPropertyOp43
 70
     1
102
RTVSPropertyOp44
 70
     1
102
RTVSPropertyOp45
 70
     1
102
RTVSPropertyOp46
 70
     1
102
RTVSPropertyOp47
 70
     1
102
RTVSPropertyOp48
 70
     1
102
RTVSPropertyOp49
 70
     1
102
RTVSPropertyOp50
 70
     1
102
RTVSPropertyOp51
 70
     0
102
RTVSPropertyOp52
 70
     0
102
RTVSPropertyOp53
 70
     1
102
RTVSPropertyOp54
 70
     1
102
RTVSPropertyOp55
 70
     1
102
RTVSPropertyOp56
 70
     1
102
RTVSPropertyOp57
 70
     1
102
RTVSPropertyOp58
 70
     1
102
RTVSPropertyOp59
 70
     1
102
RTVSPropertyOp60
 70
     1
102
RTVSPropertyOp61
 70
     1
102
RTVSPropertyOp62
 70
     1
  0
XRECORD
  5
2896
102
{ACAD_REACTORS
330
2895
102
}
330
2895
100
AcDbXrecord
280
     1
102
RTVSPost2010Prop28
280
     0
102
RTVSPost2010PropOp28
 70
     1
102
RTVSPost2010Prop29
280
     1
102
RTVSPost2010PropOp29
 70
     1
102
RTVSPost2010Prop30
280
     1
102
RTVSPost2010PropOp30
 70
     1
102
RTVSPost2010Prop31
280
     0
102
RTVSPost2010PropOp31
 70
     1
102
RTVSPost2010Prop32
280
     0
102
RTVSPost2010PropOp32
 70
     1
102
RTVSPost2010Prop33
280
     0
102
RTVSPost2010PropOp33
 70
     1
102
RTVSPost2010Prop34
280
     0
102
RTVSPost2010PropOp34
 70
     1
102
RTVSPost2010Prop35
280
     0
102
RTVSPost2010PropOp35
 70
     1
102
RTVSPost2010Prop36
280
     0
102
RTVSPost2010PropOp36
 70
     1
102
RTVSPost2010Prop37
 90
       50
102
RTVSPost2010PropOp37
 70
     1
102
RTVSPost2010Prop38
140
0.0
102
RTVSPost2010PropOp38
 70
     1
102
RTVSPost2010Prop39
140
1.0
102
RTVSPost2010PropOp39
 70
     1
102
RTVSPost2010Prop40
 90
        0
102
RTVSPost2010PropOp40
 70
     1
102
RTVSPost2010Prop41ColorIndex
 90
       18
102
RTVSPost2010Prop41ColorRGB
 90
        0
102
RTVSPost2010PropOp41
 70
     1
102
RTVSPost2010Prop42
 90
       50
102
RTVSPost2010PropOp42
 70
     1
102
RTVSPost2010Prop43
 90
        3
102
RTVSPost2010PropOp43
 70
     1
102
RTVSPost2010Prop44ColorIndex
 90
        5
102
RTVSPost2010Prop44ColorRGB
 90
      255
102
RTVSPost2010PropOp44
 70
     1
102
RTVSPost2010Prop45
280
     0
102
RTVSPost2010PropOp45
 70
     1
102
RTVSPost2010Prop46
 90
       50
102
RTVSPost2010PropOp46
 70
     1
102
RTVSPost2010Prop47
 90
       50
102
RTVSPost2010PropOp47
 70
     1
102
RTVSPost2010Prop48
 90
       50
102
RTVSPost2010PropOp48
 70
     1
102
RTVSPost2010Prop49
280
     0
102
RTVSPost2010PropOp49
 70
     1
102
RTVSPost2010Prop50
 90
       50
102
RTVSPost2010PropOp50
 70
     1
102
RTVSPost2010Prop51ColorIndex
 90
      256
102
RTVSPost2010Prop51ColorRGB
 90
-16777216
102
RTVSPost2010PropOp51
 70
     0
102
RTVSPost2010Prop52
140
1.0
102
RTVSPost2010PropOp52
 70
     0
102
RTVSPost2010Prop53
 90
        2
102
RTVSPost2010PropOp53
 70
     1
102
RTVSPost2010Prop54
  1
strokes_ogs.tif
102
RTVSPost2010PropOp54
 70
     1
102
RTVSPost2010Prop55
280
     0
102
RTVSPost2010PropOp55
 70
     1
102
RTVSPost2010Prop56
140
1.0
102
RTVSPost2010PropOp56
 70
     1
102
RTVSPost2010Prop57
140
1.0
102
RTVSPost2010PropOp57
 70
     1
102
RTVSPropertyOp0
 70
     1
102
RTVSPropertyOp1
 70
     1
102
RTVSPropertyOp2
 70
     1
102
RTVSPropertyOp3
 70
     1
102
RTVSPropertyOp4
 70
     1
102
RTVSPropertyOp5
 70
     1
102
RTVSPropertyOp6
 70
     1
102
RTVSPropertyOp7
 70
     1
102
RTVSPropertyOp8
 70
     1
102
RTVSPropertyOp9
 70
     1
102
RTVSPropertyOp10
 70
     1
102
RTVSPropertyOp11
 70
     1
102
RTVSPropertyOp12
 70
     1
102
RTVSPropertyOp13
 70
     1
102
RTVSPropertyOp14
 70
     1
102
RTVSPropertyOp15
 70
     1
102
RTVSPropertyOp16
 70
     1
102
RTVSPropertyOp17
 70
     1
102
RTVSPropertyOp18
 70
     1
102
RTVSPropertyOp19
 70
     1
102
RTVSPropertyOp20
 70
     1
102
RTVSPropertyOp21
 70
     1
102
RTVSPropertyOp22
 70
     1
102
RTVSPropertyOp23
 70
     1
102
RTVSPropertyOp24
 70
     1
102
RTVSPropertyOp25
 70
     1
102
RTVSPropertyOp26
 70
     1
102
RTVSPropertyOp27
 70
     1
102
RTVSPropertyOp28
 70
     1
102
RTVSPropertyOp29
 70
     1
102
RTVSPropertyOp30
 70
     1
102
RTVSPropertyOp31
 70
     1
102
RTVSPropertyOp32
 70
     1
102
RTVSPropertyOp33
 70
     1
102
RTVSPropertyOp34
 70
     1
102
RTVSPropertyOp35
 70
     1
102
RTVSPropertyOp36
 70
     1
102
RTVSPropertyOp37
 70
     1
102
RTVSPropertyOp38
 70
     1
102
RTVSPropertyOp39
 70
     1
102
RTVSPropertyOp40
 70
     1
102
RTVSPropertyOp41
 70
     1
102
RTVSPropertyOp42
 70
     1
102
RTVSPropertyOp43
 70
     1
102
RTVSPropertyOp44
 70
     1
102
RTVSPropertyOp45
 70
     1
102
RTVSPropertyOp46
 70
     1
102
RTVSPropertyOp47
 70
     1
102
RTVSPropertyOp48
 70
     1
102
RTVSPropertyOp49
 70
     1
102
RTVSPropertyOp50
 70
     1
102
RTVSPropertyOp51
 70
     0
102
RTVSPropertyOp52
 70
     0
102
RTVSPropertyOp53
 70
     1
102
RTVSPropertyOp54
 70
     1
102
RTVSPropertyOp55
 70
     1
102
RTVSPropertyOp56
 70
     1
102
RTVSPropertyOp57
 70
     1
102
RTVSPropertyOp58
 70
     1
102
RTVSPropertyOp59
 70
     1
102
RTVSPropertyOp60
 70
     1
102
RTVSPropertyOp61
 70
     1
102
RTVSPropertyOp62
 70
     1
  0
XRECORD
  5
2898
102
{ACAD_REACTORS
330
2897
102
}
330
2897
100
AcDbXrecord
280
     1
102
RTVSPost2010Prop28
280
     0
102
RTVSPost2010PropOp28
 70
     1
102
RTVSPost2010Prop29
280
     1
102
RTVSPost2010PropOp29
 70
     1
102
RTVSPost2010Prop30
280
     1
102
RTVSPost2010PropOp30
 70
     1
102
RTVSPost2010Prop31
280
     0
102
RTVSPost2010PropOp31
 70
     1
102
RTVSPost2010Prop32
280
     0
102
RTVSPost2010PropOp32
 70
     1
102
RTVSPost2010Prop33
280
     0
102
RTVSPost2010PropOp33
 70
     1
102
RTVSPost2010Prop34
280
     0
102
RTVSPost2010PropOp34
 70
     1
102
RTVSPost2010Prop35
280
     0
102
RTVSPost2010PropOp35
 70
     1
102
RTVSPost2010Prop36
280
     0
102
RTVSPost2010PropOp36
 70
     1
102
RTVSPost2010Prop37
 90
       50
102
RTVSPost2010PropOp37
 70
     1
102
RTVSPost2010Prop38
140
0.0
102
RTVSPost2010PropOp38
 70
     1
102
RTVSPost2010Prop39
140
1.0
102
RTVSPost2010PropOp39
 70
     1
102
RTVSPost2010Prop40
 90
        0
102
RTVSPost2010PropOp40
 70
     1
102
RTVSPost2010Prop41ColorIndex
 90
       18
102
RTVSPost2010Prop41ColorRGB
 90
        0
102
RTVSPost2010PropOp41
 70
     1
102
RTVSPost2010Prop42
 90
       50
102
RTVSPost2010PropOp42
 70
     1
102
RTVSPost2010Prop43
 90
        3
102
RTVSPost2010PropOp43
 70
     1
102
RTVSPost2010Prop44ColorIndex
 90
        5
102
RTVSPost2010Prop44ColorRGB
 90
      255
102
RTVSPost2010PropOp44
 70
     1
102
RTVSPost2010Prop45
280
     0
102
RTVSPost2010PropOp45
 70
     1
102
RTVSPost2010Prop46
 90
       50
102
RTVSPost2010PropOp46
 70
     1
102
RTVSPost2010Prop47
 90
       50
102
RTVSPost2010PropOp47
 70
     1
102
RTVSPost2010Prop48
 90
       50
102
RTVSPost2010PropOp48
 70
     1
102
RTVSPost2010Prop49
280
     0
102
RTVSPost2010PropOp49
 70
     1
102
RTVSPost2010Prop50
 90
       50
102
RTVSPost2010PropOp50
 70
     1
102
RTVSPost2010Prop51ColorIndex
 90
      256
102
RTVSPost2010Prop51ColorRGB
 90
-16777216
102
RTVSPost2010PropOp51
 70
     0
102
RTVSPost2010Prop52
140
1.0
102
RTVSPost2010PropOp52
 70
     0
102
RTVSPost2010Prop53
 90
        2
102
RTVSPost2010PropOp53
 70
     1
102
RTVSPost2010Prop54
  1
strokes_ogs.tif
102
RTVSPost2010PropOp54
 70
     1
102
RTVSPost2010Prop55
280
     0
102
RTVSPost2010PropOp55
 70
     1
102
RTVSPost2010Prop56
140
1.0
102
RTVSPost2010PropOp56
 70
     1
102
RTVSPost2010Prop57
140
1.0
102
RTVSPost2010PropOp57
 70
     1
102
RTVSPropertyOp0
 70
     1
102
RTVSPropertyOp1
 70
     1
102
RTVSPropertyOp2
 70
     1
102
RTVSPropertyOp3
 70
     1
102
RTVSPropertyOp4
 70
     1
102
RTVSPropertyOp5
 70
     1
102
RTVSPropertyOp6
 70
     1
102
RTVSPropertyOp7
 70
     1
102
RTVSPropertyOp8
 70
     1
102
RTVSPropertyOp9
 70
     1
102
RTVSPropertyOp10
 70
     1
102
RTVSPropertyOp11
 70
     1
102
RTVSPropertyOp12
 70
     1
102
RTVSPropertyOp13
 70
     1
102
RTVSPropertyOp14
 70
     1
102
RTVSPropertyOp15
 70
     1
102
RTVSPropertyOp16
 70
     1
102
RTVSPropertyOp17
 70
     1
102
RTVSPropertyOp18
 70
     1
102
RTVSPropertyOp19
 70
     1
102
RTVSPropertyOp20
 70
     1
102
RTVSPropertyOp21
 70
     1
102
RTVSPropertyOp22
 70
     1
102
RTVSPropertyOp23
 70
     1
102
RTVSPropertyOp24
 70
     1
102
RTVSPropertyOp25
 70
     1
102
RTVSPropertyOp26
 70
     1
102
RTVSPropertyOp27
 70
     1
102
RTVSPropertyOp28
 70
     1
102
RTVSPropertyOp29
 70
     1
102
RTVSPropertyOp30
 70
     1
102
RTVSPropertyOp31
 70
     1
102
RTVSPropertyOp32
 70
     1
102
RTVSPropertyOp33
 70
     1
102
RTVSPropertyOp34
 70
     1
102
RTVSPropertyOp35
 70
     1
102
RTVSPropertyOp36
 70
     1
102
RTVSPropertyOp37
 70
     1
102
RTVSPropertyOp38
 70
     1
102
RTVSPropertyOp39
 70
     1
102
RTVSPropertyOp40
 70
     1
102
RTVSPropertyOp41
 70
     1
102
RTVSPropertyOp42
 70
     1
102
RTVSPropertyOp43
 70
     1
102
RTVSPropertyOp44
 70
     1
102
RTVSPropertyOp45
 70
     1
102
RTVSPropertyOp46
 70
     1
102
RTVSPropertyOp47
 70
     1
102
RTVSPropertyOp48
 70
     1
102
RTVSPropertyOp49
 70
     1
102
RTVSPropertyOp50
 70
     1
102
RTVSPropertyOp51
 70
     0
102
RTVSPropertyOp52
 70
     0
102
RTVSPropertyOp53
 70
     1
102
RTVSPropertyOp54
 70
     1
102
RTVSPropertyOp55
 70
     1
102
RTVSPropertyOp56
 70
     1
102
RTVSPropertyOp57
 70
     1
102
RTVSPropertyOp58
 70
     1
102
RTVSPropertyOp59
 70
     1
102
RTVSPropertyOp60
 70
     1
102
RTVSPropertyOp61
 70
     1
102
RTVSPropertyOp62
 70
     1
  0
XRECORD
  5
288E
102
{ACAD_REACTORS
330
288D
102
}
330
288D
100
AcDbXrecord
280
     1
102
RTVSPost2010Prop28
280
     0
102
RTVSPost2010PropOp28
 70
     1
102
RTVSPost2010Prop29
280
     1
102
RTVSPost2010PropOp29
 70
     1
102
RTVSPost2010Prop30
280
     1
102
RTVSPost2010PropOp30
 70
     1
102
RTVSPost2010Prop31
280
     0
102
RTVSPost2010PropOp31
 70
     1
102
RTVSPost2010Prop32
280
     0
102
RTVSPost2010PropOp32
 70
     1
102
RTVSPost2010Prop33
280
     0
102
RTVSPost2010PropOp33
 70
     1
102
RTVSPost2010Prop34
280
     0
102
RTVSPost2010PropOp34
 70
     1
102
RTVSPost2010Prop35
280
     0
102
RTVSPost2010PropOp35
 70
     1
102
RTVSPost2010Prop36
280
     0
102
RTVSPost2010PropOp36
 70
     1
102
RTVSPost2010Prop37
 90
       50
102
RTVSPost2010PropOp37
 70
     1
102
RTVSPost2010Prop38
140
0.0
102
RTVSPost2010PropOp38
 70
     1
102
RTVSPost2010Prop39
140
1.0
102
RTVSPost2010PropOp39
 70
     1
102
RTVSPost2010Prop40
 90
        0
102
RTVSPost2010PropOp40
 70
     1
102
RTVSPost2010Prop41ColorIndex
 90
       18
102
RTVSPost2010Prop41ColorRGB
 90
        0
102
RTVSPost2010PropOp41
 70
     1
102
RTVSPost2010Prop42
 90
       50
102
RTVSPost2010PropOp42
 70
     1
102
RTVSPost2010Prop43
 90
        3
102
RTVSPost2010PropOp43
 70
     1
102
RTVSPost2010Prop44ColorIndex
 90
        5
102
RTVSPost2010Prop44ColorRGB
 90
      255
102
RTVSPost2010PropOp44
 70
     1
102
RTVSPost2010Prop45
280
     0
102
RTVSPost2010PropOp45
 70
     1
102
RTVSPost2010Prop46
 90
       50
102
RTVSPost2010PropOp46
 70
     1
102
RTVSPost2010Prop47
 90
       50
102
RTVSPost2010PropOp47
 70
     1
102
RTVSPost2010Prop48
 90
       50
102
RTVSPost2010PropOp48
 70
     1
102
RTVSPost2010Prop49
280
     0
102
RTVSPost2010PropOp49
 70
     1
102
RTVSPost2010Prop50
 90
       50
102
RTVSPost2010PropOp50
 70
     1
102
RTVSPost2010Prop51ColorIndex
 90
      256
102
RTVSPost2010Prop51ColorRGB
 90
-16777216
102
RTVSPost2010PropOp51
 70
     0
102
RTVSPost2010Prop52
140
1.0
102
RTVSPost2010PropOp52
 70
     0
102
RTVSPost2010Prop53
 90
        2
102
RTVSPost2010PropOp53
 70
     1
102
RTVSPost2010Prop54
  1
strokes_ogs.tif
102
RTVSPost2010PropOp54
 70
     1
102
RTVSPost2010Prop55
280
     0
102
RTVSPost2010PropOp55
 70
     1
102
RTVSPost2010Prop56
140
1.0
102
RTVSPost2010PropOp56
 70
     1
102
RTVSPost2010Prop57
140
1.0
102
RTVSPost2010PropOp57
 70
     1
102
RTVSPropertyOp0
 70
     1
102
RTVSPropertyOp1
 70
     1
102
RTVSPropertyOp2
 70
     1
102
RTVSPropertyOp3
 70
     1
102
RTVSPropertyOp4
 70
     1
102
RTVSPropertyOp5
 70
     1
102
RTVSPropertyOp6
 70
     1
102
RTVSPropertyOp7
 70
     1
102
RTVSPropertyOp8
 70
     1
102
RTVSPropertyOp9
 70
     1
102
RTVSPropertyOp10
 70
     1
102
RTVSPropertyOp11
 70
     1
102
RTVSPropertyOp12
 70
     1
102
RTVSPropertyOp13
 70
     1
102
RTVSPropertyOp14
 70
     1
102
RTVSPropertyOp15
 70
     1
102
RTVSPropertyOp16
 70
     1
102
RTVSPropertyOp17
 70
     1
102
RTVSPropertyOp18
 70
     1
102
RTVSPropertyOp19
 70
     1
102
RTVSPropertyOp20
 70
     1
102
RTVSPropertyOp21
 70
     1
102
RTVSPropertyOp22
 70
     1
102
RTVSPropertyOp23
 70
     1
102
RTVSPropertyOp24
 70
     1
102
RTVSPropertyOp25
 70
     1
102
RTVSPropertyOp26
 70
     1
102
RTVSPropertyOp27
 70
     1
102
RTVSPropertyOp28
 70
     1
102
RTVSPropertyOp29
 70
     1
102
RTVSPropertyOp30
 70
     1
102
RTVSPropertyOp31
 70
     1
102
RTVSPropertyOp32
 70
     1
102
RTVSPropertyOp33
 70
     1
102
RTVSPropertyOp34
 70
     1
102
RTVSPropertyOp35
 70
     1
102
RTVSPropertyOp36
 70
     1
102
RTVSPropertyOp37
 70
     1
102
RTVSPropertyOp38
 70
     1
102
RTVSPropertyOp39
 70
     1
102
RTVSPropertyOp40
 70
     1
102
RTVSPropertyOp41
 70
     1
102
RTVSPropertyOp42
 70
     1
102
RTVSPropertyOp43
 70
     1
102
RTVSPropertyOp44
 70
     1
102
RTVSPropertyOp45
 70
     1
102
RTVSPropertyOp46
 70
     1
102
RTVSPropertyOp47
 70
     1
102
RTVSPropertyOp48
 70
     1
102
RTVSPropertyOp49
 70
     1
102
RTVSPropertyOp50
 70
     1
102
RTVSPropertyOp51
 70
     0
102
RTVSPropertyOp52
 70
     0
102
RTVSPropertyOp53
 70
     1
102
RTVSPropertyOp54
 70
     1
102
RTVSPropertyOp55
 70
     1
102
RTVSPropertyOp56
 70
     1
102
RTVSPropertyOp57
 70
     1
102
RTVSPropertyOp58
 70
     1
102
RTVSPropertyOp59
 70
     1
102
RTVSPropertyOp60
 70
     1
102
RTVSPropertyOp61
 70
     1
102
RTVSPropertyOp62
 70
     1
  0
XRECORD
  5
2882
102
{ACAD_REACTORS
330
2881
102
}
330
2881
100
AcDbXrecord
280
     1
102
RTVSPost2010Prop28
280
     0
102
RTVSPost2010PropOp28
 70
     1
102
RTVSPost2010Prop29
280
     1
102
RTVSPost2010PropOp29
 70
     1
102
RTVSPost2010Prop30
280
     1
102
RTVSPost2010PropOp30
 70
     1
102
RTVSPost2010Prop31
280
     0
102
RTVSPost2010PropOp31
 70
     1
102
RTVSPost2010Prop32
280
     0
102
RTVSPost2010PropOp32
 70
     1
102
RTVSPost2010Prop33
280
     0
102
RTVSPost2010PropOp33
 70
     1
102
RTVSPost2010Prop34
280
     0
102
RTVSPost2010PropOp34
 70
     1
102
RTVSPost2010Prop35
280
     0
102
RTVSPost2010PropOp35
 70
     1
102
RTVSPost2010Prop36
280
     0
102
RTVSPost2010PropOp36
 70
     1
102
RTVSPost2010Prop37
 90
       50
102
RTVSPost2010PropOp37
 70
     1
102
RTVSPost2010Prop38
140
0.0
102
RTVSPost2010PropOp38
 70
     1
102
RTVSPost2010Prop39
140
1.0
102
RTVSPost2010PropOp39
 70
     1
102
RTVSPost2010Prop40
 90
        0
102
RTVSPost2010PropOp40
 70
     1
102
RTVSPost2010Prop41ColorIndex
 90
       18
102
RTVSPost2010Prop41ColorRGB
 90
        0
102
RTVSPost2010PropOp41
 70
     1
102
RTVSPost2010Prop42
 90
       50
102
RTVSPost2010PropOp42
 70
     1
102
RTVSPost2010Prop43
 90
        3
102
RTVSPost2010PropOp43
 70
     1
102
RTVSPost2010Prop44ColorIndex
 90
        5
102
RTVSPost2010Prop44ColorRGB
 90
      255
102
RTVSPost2010PropOp44
 70
     1
102
RTVSPost2010Prop45
280
     0
102
RTVSPost2010PropOp45
 70
     1
102
RTVSPost2010Prop46
 90
       50
102
RTVSPost2010PropOp46
 70
     1
102
RTVSPost2010Prop47
 90
       50
102
RTVSPost2010PropOp47
 70
     1
102
RTVSPost2010Prop48
 90
       50
102
RTVSPost2010PropOp48
 70
     1
102
RTVSPost2010Prop49
280
     0
102
RTVSPost2010PropOp49
 70
     1
102
RTVSPost2010Prop50
 90
       50
102
RTVSPost2010PropOp50
 70
     1
102
RTVSPost2010Prop51ColorIndex
 90
      256
102
RTVSPost2010Prop51ColorRGB
 90
-16777216
102
RTVSPost2010PropOp51
 70
     0
102
RTVSPost2010Prop52
140
1.0
102
RTVSPost2010PropOp52
 70
     0
102
RTVSPost2010Prop53
 90
        2
102
RTVSPost2010PropOp53
 70
     1
102
RTVSPost2010Prop54
  1
strokes_ogs.tif
102
RTVSPost2010PropOp54
 70
     1
102
RTVSPost2010Prop55
280
     0
102
RTVSPost2010PropOp55
 70
     1
102
RTVSPost2010Prop56
140
1.0
102
RTVSPost2010PropOp56
 70
     1
102
RTVSPost2010Prop57
140
1.0
102
RTVSPost2010PropOp57
 70
     1
102
RTVSPropertyOp0
 70
     1
102
RTVSPropertyOp1
 70
     1
102
RTVSPropertyOp2
 70
     1
102
RTVSPropertyOp3
 70
     1
102
RTVSPropertyOp4
 70
     1
102
RTVSPropertyOp5
 70
     1
102
RTVSPropertyOp6
 70
     1
102
RTVSPropertyOp7
 70
     1
102
RTVSPropertyOp8
 70
     1
102
RTVSPropertyOp9
 70
     1
102
RTVSPropertyOp10
 70
     1
102
RTVSPropertyOp11
 70
     1
102
RTVSPropertyOp12
 70
     1
102
RTVSPropertyOp13
 70
     1
102
RTVSPropertyOp14
 70
     1
102
RTVSPropertyOp15
 70
     1
102
RTVSPropertyOp16
 70
     1
102
RTVSPropertyOp17
 70
     1
102
RTVSPropertyOp18
 70
     1
102
RTVSPropertyOp19
 70
     1
102
RTVSPropertyOp20
 70
     1
102
RTVSPropertyOp21
 70
     1
102
RTVSPropertyOp22
 70
     1
102
RTVSPropertyOp23
 70
     1
102
RTVSPropertyOp24
 70
     1
102
RTVSPropertyOp25
 70
     1
102
RTVSPropertyOp26
 70
     1
102
RTVSPropertyOp27
 70
     1
102
RTVSPropertyOp28
 70
     1
102
RTVSPropertyOp29
 70
     1
102
RTVSPropertyOp30
 70
     1
102
RTVSPropertyOp31
 70
     1
102
RTVSPropertyOp32
 70
     1
102
RTVSPropertyOp33
 70
     1
102
RTVSPropertyOp34
 70
     1
102
RTVSPropertyOp35
 70
     1
102
RTVSPropertyOp36
 70
     1
102
RTVSPropertyOp37
 70
     1
102
RTVSPropertyOp38
 70
     1
102
RTVSPropertyOp39
 70
     1
102
RTVSPropertyOp40
 70
     1
102
RTVSPropertyOp41
 70
     1
102
RTVSPropertyOp42
 70
     1
102
RTVSPropertyOp43
 70
     1
102
RTVSPropertyOp44
 70
     1
102
RTVSPropertyOp45
 70
     1
102
RTVSPropertyOp46
 70
     1
102
RTVSPropertyOp47
 70
     1
102
RTVSPropertyOp48
 70
     1
102
RTVSPropertyOp49
 70
     1
102
RTVSPropertyOp50
 70
     1
102
RTVSPropertyOp51
 70
     0
102
RTVSPropertyOp52
 70
     0
102
RTVSPropertyOp53
 70
     1
102
RTVSPropertyOp54
 70
     1
102
RTVSPropertyOp55
 70
     1
102
RTVSPropertyOp56
 70
     1
102
RTVSPropertyOp57
 70
     1
102
RTVSPropertyOp58
 70
     1
102
RTVSPropertyOp59
 70
     1
102
RTVSPropertyOp60
 70
     1
102
RTVSPropertyOp61
 70
     1
102
RTVSPropertyOp62
 70
     1
  0
XRECORD
  5
289A
102
{ACAD_REACTORS
330
2899
102
}
330
2899
100
AcDbXrecord
280
     1
102
RTVSPost2010Prop28
280
     0
102
RTVSPost2010PropOp28
 70
     1
102
RTVSPost2010Prop29
280
     1
102
RTVSPost2010PropOp29
 70
     1
102
RTVSPost2010Prop30
280
     1
102
RTVSPost2010PropOp30
 70
     1
102
RTVSPost2010Prop31
280
     0
102
RTVSPost2010PropOp31
 70
     1
102
RTVSPost2010Prop32
280
     0
102
RTVSPost2010PropOp32
 70
     1
102
RTVSPost2010Prop33
280
     0
102
RTVSPost2010PropOp33
 70
     1
102
RTVSPost2010Prop34
280
     0
102
RTVSPost2010PropOp34
 70
     1
102
RTVSPost2010Prop35
280
     0
102
RTVSPost2010PropOp35
 70
     1
102
RTVSPost2010Prop36
280
     0
102
RTVSPost2010PropOp36
 70
     1
102
RTVSPost2010Prop37
 90
       50
102
RTVSPost2010PropOp37
 70
     1
102
RTVSPost2010Prop38
140
0.0
102
RTVSPost2010PropOp38
 70
     1
102
RTVSPost2010Prop39
140
1.0
102
RTVSPost2010PropOp39
 70
     1
102
RTVSPost2010Prop40
 90
        0
102
RTVSPost2010PropOp40
 70
     1
102
RTVSPost2010Prop41ColorIndex
 90
       18
102
RTVSPost2010Prop41ColorRGB
 90
        0
102
RTVSPost2010PropOp41
 70
     1
102
RTVSPost2010Prop42
 90
       50
102
RTVSPost2010PropOp42
 70
     1
102
RTVSPost2010Prop43
 90
        3
102
RTVSPost2010PropOp43
 70
     1
102
RTVSPost2010Prop44ColorIndex
 90
        5
102
RTVSPost2010Prop44ColorRGB
 90
      255
102
RTVSPost2010PropOp44
 70
     1
102
RTVSPost2010Prop45
280
     0
102
RTVSPost2010PropOp45
 70
     1
102
RTVSPost2010Prop46
 90
       50
102
RTVSPost2010PropOp46
 70
     1
102
RTVSPost2010Prop47
 90
       50
102
RTVSPost2010PropOp47
 70
     1
102
RTVSPost2010Prop48
 90
       50
102
RTVSPost2010PropOp48
 70
     1
102
RTVSPost2010Prop49
280
     0
102
RTVSPost2010PropOp49
 70
     1
102
RTVSPost2010Prop50
 90
       50
102
RTVSPost2010PropOp50
 70
     1
102
RTVSPost2010Prop51ColorIndex
 90
      256
102
RTVSPost2010Prop51ColorRGB
 90
-16777216
102
RTVSPost2010PropOp51
 70
     0
102
RTVSPost2010Prop52
140
1.0
102
RTVSPost2010PropOp52
 70
     0
102
RTVSPost2010Prop53
 90
        2
102
RTVSPost2010PropOp53
 70
     1
102
RTVSPost2010Prop54
  1
strokes_ogs.tif
102
RTVSPost2010PropOp54
 70
     1
102
RTVSPost2010Prop55
280
     0
102
RTVSPost2010PropOp55
 70
     1
102
RTVSPost2010Prop56
140
1.0
102
RTVSPost2010PropOp56
 70
     1
102
RTVSPost2010Prop57
140
1.0
102
RTVSPost2010PropOp57
 70
     1
102
RTVSPropertyOp0
 70
     1
102
RTVSPropertyOp1
 70
     1
102
RTVSPropertyOp2
 70
     1
102
RTVSPropertyOp3
 70
     1
102
RTVSPropertyOp4
 70
     1
102
RTVSPropertyOp5
 70
     1
102
RTVSPropertyOp6
 70
     1
102
RTVSPropertyOp7
 70
     1
102
RTVSPropertyOp8
 70
     1
102
RTVSPropertyOp9
 70
     1
102
RTVSPropertyOp10
 70
     1
102
RTVSPropertyOp11
 70
     1
102
RTVSPropertyOp12
 70
     1
102
RTVSPropertyOp13
 70
     1
102
RTVSPropertyOp14
 70
     1
102
RTVSPropertyOp15
 70
     1
102
RTVSPropertyOp16
 70
     1
102
RTVSPropertyOp17
 70
     1
102
RTVSPropertyOp18
 70
     1
102
RTVSPropertyOp19
 70
     1
102
RTVSPropertyOp20
 70
     1
102
RTVSPropertyOp21
 70
     1
102
RTVSPropertyOp22
 70
     1
102
RTVSPropertyOp23
 70
     1
102
RTVSPropertyOp24
 70
     1
102
RTVSPropertyOp25
 70
     1
102
RTVSPropertyOp26
 70
     1
102
RTVSPropertyOp27
 70
     1
102
RTVSPropertyOp28
 70
     1
102
RTVSPropertyOp29
 70
     1
102
RTVSPropertyOp30
 70
     1
102
RTVSPropertyOp31
 70
     1
102
RTVSPropertyOp32
 70
     1
102
RTVSPropertyOp33
 70
     1
102
RTVSPropertyOp34
 70
     1
102
RTVSPropertyOp35
 70
     1
102
RTVSPropertyOp36
 70
     1
102
RTVSPropertyOp37
 70
     1
102
RTVSPropertyOp38
 70
     1
102
RTVSPropertyOp39
 70
     1
102
RTVSPropertyOp40
 70
     1
102
RTVSPropertyOp41
 70
     1
102
RTVSPropertyOp42
 70
     1
102
RTVSPropertyOp43
 70
     1
102
RTVSPropertyOp44
 70
     1
102
RTVSPropertyOp45
 70
     1
102
RTVSPropertyOp46
 70
     1
102
RTVSPropertyOp47
 70
     1
102
RTVSPropertyOp48
 70
     1
102
RTVSPropertyOp49
 70
     1
102
RTVSPropertyOp50
 70
     1
102
RTVSPropertyOp51
 70
     0
102
RTVSPropertyOp52
 70
     0
102
RTVSPropertyOp53
 70
     1
102
RTVSPropertyOp54
 70
     1
102
RTVSPropertyOp55
 70
     1
102
RTVSPropertyOp56
 70
     1
102
RTVSPropertyOp57
 70
     1
102
RTVSPropertyOp58
 70
     1
102
RTVSPropertyOp59
 70
     1
102
RTVSPropertyOp60
 70
     1
102
RTVSPropertyOp61
 70
     1
102
RTVSPropertyOp62
 70
     1
  0
XRECORD
  5
25C0
102
{ACAD_REACTORS
330
25BF
102
}
330
25BF
100
AcDbXrecord
280
     1
330
23FB
  0
ACDBASSOCARRAYACTIONBODY
  5
25D5
330
25D4
100
AcDbAssocActionBody
 90
        1
100
AcDbAssocParamBasedActionBody
 90
        0
 90
        0
 90
        3
360
25D6
360
25D7
360
25DB
 90
        0
 90
        9
 90
        0
  1
AlignItems
 90
        0
 90
        1
 90
        0
330
0
330
0
 90
        0
  1
AxesAngle
 90
        2
 90
        1
 40
1.570796326794896
330
0
330
0
 90
        0
  1
ItemSpacing
 90
        1
 90
        1
 40
12.55692254545454
330
0
330
0
 90
        0
  1
Items
 90
        0
 90
        1
 90
       78
330
0
330
0
 90
        0
  1
LevelSpacing
 90
        1
 90
        1
 40
1.0
330
0
330
0
 90
        0
  1
Levels
 90
        0
 90
        1
 90
        1
330
0
330
0
 90
        0
  1
RowElevation
 90
        1
 90
        1
 40
0.0
330
0
330
0
 90
        0
  1
RowSpacing
 90
        1
 90
        1
 40
48.0
330
0
330
0
 90
        0
  1
Rows
 90
        0
 90
        1
 90
        1
330
0
330
0
100
AcDbAssocArrayActionBody
 90
        1
  1
AcDbAssocArrayRectangularParameters
 90
        0
 90
       78
  1
AcDbAssocArrayItem
100
AcDbAssocArrayItem
 90
        0
 90
        0
 90
        0
 90
        0
 90
        8
 11
0.0
 21
0.0
 31
0.0
330
25DD
100
AcDbAssocArrayItem
 90
        0
 90
        1
 90
        0
 90
        0
 90
        8
 11
12.55692254545454
 21
0.0
 31
0.0
330
25DE
100
AcDbAssocArrayItem
 90
        0
 90
        2
 90
        0
 90
        0
 90
        8
 11
25.11384509090908
 21
0.0
 31
0.0
330
25DF
100
AcDbAssocArrayItem
 90
        0
 90
        3
 90
        0
 90
        0
 90
        8
 11
37.67076763636362
 21
0.0
 31
0.0
330
25E0
100
AcDbAssocArrayItem
 90
        0
 90
        4
 90
        0
 90
        0
 90
        8
 11
50.22769018181816
 21
0.0
 31
0.0
330
25E1
100
AcDbAssocArrayItem
 90
        0
 90
        5
 90
        0
 90
        0
 90
        8
 11
62.7846127272727
 21
0.0
 31
0.0
330
25E2
100
AcDbAssocArrayItem
 90
        0
 90
        6
 90
        0
 90
        0
 90
        8
 11
75.34153527272724
 21
0.0
 31
0.0
330
25E3
100
AcDbAssocArrayItem
 90
        0
 90
        7
 90
        0
 90
        0
 90
        8
 11
87.89845781818177
 21
0.0
 31
0.0
330
25E4
100
AcDbAssocArrayItem
 90
        0
 90
        8
 90
        0
 90
        0
 90
        8
 11
100.4553803636363
 21
0.0
 31
0.0
330
25E5
100
AcDbAssocArrayItem
 90
        0
 90
        9
 90
        0
 90
        0
 90
        8
 11
113.0123029090908
 21
0.0
 31
0.0
330
25E6
100
AcDbAssocArrayItem
 90
        0
 90
       10
 90
        0
 90
        0
 90
        8
 11
125.5692254545454
 21
0.0
 31
0.0
330
25E7
100
AcDbAssocArrayItem
 90
        0
 90
       11
 90
        0
 90
        0
 90
        8
 11
138.1261479999999
 21
0.0
 31
0.0
330
25E8
100
AcDbAssocArrayItem
 90
        0
 90
       12
 90
        0
 90
        0
 90
        8
 11
150.6830705454545
 21
0.0
 31
0.0
330
25E9
100
AcDbAssocArrayItem
 90
        0
 90
       13
 90
        0
 90
        0
 90
        8
 11
163.239993090909
 21
0.0
 31
0.0
330
25EA
100
AcDbAssocArrayItem
 90
        0
 90
       14
 90
        0
 90
        0
 90
        8
 11
175.7969156363635
 21
0.0
 31
0.0
330
25EB
100
AcDbAssocArrayItem
 90
        0
 90
       15
 90
        0
 90
        0
 90
        8
 11
188.3538381818181
 21
0.0
 31
0.0
330
25EC
100
AcDbAssocArrayItem
 90
        0
 90
       16
 90
        0
 90
        0
 90
        8
 11
200.9107607272726
 21
0.0
 31
0.0
330
25ED
100
AcDbAssocArrayItem
 90
        0
 90
       17
 90
        0
 90
        0
 90
        8
 11
213.4676832727272
 21
0.0
 31
0.0
330
25EE
100
AcDbAssocArrayItem
 90
        0
 90
       18
 90
        0
 90
        0
 90
        8
 11
226.0246058181817
 21
0.0
 31
0.0
330
25EF
100
AcDbAssocArrayItem
 90
        0
 90
       19
 90
        0
 90
        0
 90
        8
 11
238.5815283636363
 21
0.0
 31
0.0
330
25F0
100
AcDbAssocArrayItem
 90
        0
 90
       20
 90
        0
 90
        0
 90
        8
 11
251.1384509090908
 21
0.0
 31
0.0
330
25F1
100
AcDbAssocArrayItem
 90
        0
 90
       21
 90
        0
 90
        0
 90
        8
 11
263.6953734545453
 21
0.0
 31
0.0
330
25F2
100
AcDbAssocArrayItem
 90
        0
 90
       22
 90
        0
 90
        0
 90
        8
 11
276.2522959999999
 21
0.0
 31
0.0
330
25F3
100
AcDbAssocArrayItem
 90
        0
 90
       23
 90
        0
 90
        0
 90
        8
 11
288.8092185454544
 21
0.0
 31
0.0
330
25F4
100
AcDbAssocArrayItem
 90
        0
 90
       24
 90
        0
 90
        0
 90
        8
 11
301.366141090909
 21
0.0
 31
0.0
330
25F5
100
AcDbAssocArrayItem
 90
        0
 90
       25
 90
        0
 90
        0
 90
        8
 11
313.9230636363635
 21
0.0
 31
0.0
330
25F6
100
AcDbAssocArrayItem
 90
        0
 90
       26
 90
        0
 90
        0
 90
        8
 11
326.479986181818
 21
0.0
 31
0.0
330
25F7
100
AcDbAssocArrayItem
 90
        0
 90
       27
 90
        0
 90
        0
 90
        8
 11
339.0369087272726
 21
0.0
 31
0.0
330
25F8
100
AcDbAssocArrayItem
 90
        0
 90
       28
 90
        0
 90
        0
 90
        8
 11
351.5938312727271
 21
0.0
 31
0.0
330
25F9
100
AcDbAssocArrayItem
 90
        0
 90
       29
 90
        0
 90
        0
 90
        8
 11
364.1507538181817
 21
0.0
 31
0.0
330
25FA
100
AcDbAssocArrayItem
 90
        0
 90
       30
 90
        0
 90
        0
 90
        8
 11
376.7076763636362
 21
0.0
 31
0.0
330
25FB
100
AcDbAssocArrayItem
 90
        0
 90
       31
 90
        0
 90
        0
 90
        8
 11
389.2645989090908
 21
0.0
 31
0.0
330
25FC
100
AcDbAssocArrayItem
 90
        0
 90
       32
 90
        0
 90
        0
 90
        8
 11
401.8215214545453
 21
0.0
 31
0.0
330
25FD
100
AcDbAssocArrayItem
 90
        0
 90
       33
 90
        0
 90
        0
 90
        8
 11
414.3784439999998
 21
0.0
 31
0.0
330
25FE
100
AcDbAssocArrayItem
 90
        0
 90
       34
 90
        0
 90
        0
 90
        8
 11
426.9353665454543
 21
0.0
 31
0.0
330
25FF
100
AcDbAssocArrayItem
 90
        0
 90
       35
 90
        0
 90
        0
 90
        8
 11
439.4922890909088
 21
0.0
 31
0.0
330
2600
100
AcDbAssocArrayItem
 90
        0
 90
       36
 90
        0
 90
        0
 90
        8
 11
452.0492116363634
 21
0.0
 31
0.0
330
2601
100
AcDbAssocArrayItem
 90
        0
 90
       37
 90
        0
 90
        0
 90
        8
 11
464.606134181818
 21
0.0
 31
0.0
330
2602
100
AcDbAssocArrayItem
 90
        0
 90
       38
 90
        0
 90
        0
 90
        8
 11
477.1630567272725
 21
0.0
 31
0.0
330
2603
100
AcDbAssocArrayItem
 90
        0
 90
       39
 90
        0
 90
        0
 90
        8
 11
489.7199792727271
 21
0.0
 31
0.0
330
2604
100
AcDbAssocArrayItem
 90
        0
 90
       40
 90
        0
 90
        0
 90
        8
 11
502.2769018181816
 21
0.0
 31
0.0
330
2605
100
AcDbAssocArrayItem
 90
        0
 90
       41
 90
        0
 90
        0
 90
        8
 11
514.8338243636361
 21
0.0
 31
0.0
330
2606
100
AcDbAssocArrayItem
 90
        0
 90
       42
 90
        0
 90
        0
 90
        8
 11
527.3907469090906
 21
0.0
 31
0.0
330
2607
100
AcDbAssocArrayItem
 90
        0
 90
       43
 90
        0
 90
        0
 90
        8
 11
539.9476694545452
 21
0.0
 31
0.0
330
2608
100
AcDbAssocArrayItem
 90
        0
 90
       44
 90
        0
 90
        0
 90
        8
 11
552.5045919999997
 21
0.0
 31
0.0
330
2609
100
AcDbAssocArrayItem
 90
        0
 90
       45
 90
        0
 90
        0
 90
        8
 11
565.0615145454543
 21
0.0
 31
0.0
330
260A
100
AcDbAssocArrayItem
 90
        0
 90
       46
 90
        0
 90
        0
 90
        8
 11
577.6184370909088
 21
0.0
 31
0.0
330
260B
100
AcDbAssocArrayItem
 90
        0
 90
       47
 90
        0
 90
        0
 90
        8
 11
590.1753596363634
 21
0.0
 31
0.0
330
260C
100
AcDbAssocArrayItem
 90
        0
 90
       48
 90
        0
 90
        0
 90
        8
 11
602.7322821818179
 21
0.0
 31
0.0
330
260D
100
AcDbAssocArrayItem
 90
        0
 90
       49
 90
        0
 90
        0
 90
        8
 11
615.2892047272724
 21
0.0
 31
0.0
330
260E
100
AcDbAssocArrayItem
 90
        0
 90
       50
 90
        0
 90
        0
 90
        8
 11
627.846127272727
 21
0.0
 31
0.0
330
260F
100
AcDbAssocArrayItem
 90
        0
 90
       51
 90
        0
 90
        0
 90
        8
 11
640.4030498181815
 21
0.0
 31
0.0
330
2610
100
AcDbAssocArrayItem
 90
        0
 90
       52
 90
        0
 90
        0
 90
        8
 11
652.959972363636
 21
0.0
 31
0.0
330
2611
100
AcDbAssocArrayItem
 90
        0
 90
       53
 90
        0
 90
        0
 90
        8
 11
665.5168949090906
 21
0.0
 31
0.0
330
2612
100
AcDbAssocArrayItem
 90
        0
 90
       54
 90
        0
 90
        0
 90
        8
 11
678.0738174545452
 21
0.0
 31
0.0
330
2613
100
AcDbAssocArrayItem
 90
        0
 90
       55
 90
        0
 90
        0
 90
        8
 11
690.6307399999997
 21
0.0
 31
0.0
330
2614
100
AcDbAssocArrayItem
 90
        0
 90
       56
 90
        0
 90
        0
 90
        8
 11
703.1876625454542
 21
0.0
 31
0.0
330
2615
100
AcDbAssocArrayItem
 90
        0
 90
       57
 90
        0
 90
        0
 90
        8
 11
715.7445850909088
 21
0.0
 31
0.0
330
2616
100
AcDbAssocArrayItem
 90
        0
 90
       58
 90
        0
 90
        0
 90
        8
 11
728.3015076363633
 21
0.0
 31
0.0
330
2617
100
AcDbAssocArrayItem
 90
        0
 90
       59
 90
        0
 90
        0
 90
        8
 11
740.8584301818178
 21
0.0
 31
0.0
330
2618
100
AcDbAssocArrayItem
 90
        0
 90
       60
 90
        0
 90
        0
 90
        8
 11
753.4153527272724
 21
0.0
 31
0.0
330
2619
100
AcDbAssocArrayItem
 90
        0
 90
       61
 90
        0
 90
        0
 90
        8
 11
765.9722752727269
 21
0.0
 31
0.0
330
261A
100
AcDbAssocArrayItem
 90
        0
 90
       62
 90
        0
 90
        0
 90
        8
 11
778.5291978181815
 21
0.0
 31
0.0
330
261B
100
AcDbAssocArrayItem
 90
        0
 90
       63
 90
        0
 90
        0
 90
        8
 11
791.086120363636
 21
0.0
 31
0.0
330
261C
100
AcDbAssocArrayItem
 90
        0
 90
       64
 90
        0
 90
        0
 90
        8
 11
803.6430429090906
 21
0.0
 31
0.0
330
261D
100
AcDbAssocArrayItem
 90
        0
 90
       65
 90
        0
 90
        0
 90
        8
 11
816.199965454545
 21
0.0
 31
0.0
330
261E
100
AcDbAssocArrayItem
 90
        0
 90
       66
 90
        0
 90
        0
 90
        8
 11
828.7568879999996
 21
0.0
 31
0.0
330
261F
100
AcDbAssocArrayItem
 90
        0
 90
       67
 90
        0
 90
        0
 90
        8
 11
841.3138105454542
 21
0.0
 31
0.0
330
2620
100
AcDbAssocArrayItem
 90
        0
 90
       68
 90
        0
 90
        0
 90
        8
 11
853.8707330909087
 21
0.0
 31
0.0
330
2621
100
AcDbAssocArrayItem
 90
        0
 90
       69
 90
        0
 90
        0
 90
        8
 11
866.4276556363633
 21
0.0
 31
0.0
330
2622
100
AcDbAssocArrayItem
 90
        0
 90
       70
 90
        0
 90
        0
 90
        8
 11
878.9845781818177
 21
0.0
 31
0.0
330
2623
100
AcDbAssocArrayItem
 90
        0
 90
       71
 90
        0
 90
        0
 90
        8
 11
891.5415007272724
 21
0.0
 31
0.0
330
2624
100
AcDbAssocArrayItem
 90
        0
 90
       72
 90
        0
 90
        0
 90
        8
 11
904.0984232727268
 21
0.0
 31
0.0
330
2625
100
AcDbAssocArrayItem
 90
        0
 90
       73
 90
        0
 90
        0
 90
        8
 11
916.6553458181814
 21
0.0
 31
0.0
330
2626
100
AcDbAssocArrayItem
 90
        0
 90
       74
 90
        0
 90
        0
 90
        8
 11
929.212268363636
 21
0.0
 31
0.0
330
2627
100
AcDbAssocArrayItem
 90
        0
 90
       75
 90
        0
 90
        0
 90
        8
 11
941.7691909090905
 21
0.0
 31
0.0
330
2628
100
AcDbAssocArrayItem
 90
        0
 90
       76
 90
        0
 90
        0
 90
        8
 11
954.3261134545451
 21
0.0
 31
0.0
330
2629
100
AcDbAssocArrayItem
 90
        0
 90
       77
 90
        0
 90
        0
 90
        8
 11
966.8830359999995
 21
0.0
 31
0.0
330
262A
 40
1.0
 40
0.0
 40
0.0
 40
445.2066821860831
 40
0.0
 40
1.0
 40
0.0
 40
658.380821908627
 40
0.0
 40
0.0
 40
1.0
 40
0.0
 40
0.0
 40
0.0
 40
0.0
 40
1.0
  0
ACDBASSOCDEPENDENCY
  5
25D8
330
25D4
100
AcDbAssocDependency
 90
        2
 90
        1
290
     0
290
     1
290
     1
290
     1
 90
        0
330
25C6
290
     0
330
0
330
0
360
0
 90
        1
  0
ACDBASSOCDEPENDENCY
  5
25D9
330
25D4
100
AcDbAssocDependency
 90
        2
 90
        1
290
     1
290
     0
290
     1
290
     1
 90
        0
330
25C3
290
     0
330
0
330
0
360
0
 90
        2
  0
ACDBASSOCDEPENDENCY
  5
25DA
330
25D4
100
AcDbAssocDependency
 90
        2
 90
        0
290
     1
290
     1
290
     1
290
     1
 90
-2147483648
330
25C9
290
     0
330
0
330
0
360
0
 90
        3
  0
ACDBASSOCARRAYACTIONBODY
  5
275D
330
275C
100
AcDbAssocActionBody
 90
        1
100
AcDbAssocParamBasedActionBody
 90
        0
 90
        0
 90
        3
360
275E
360
275F
360
2763
 90
        0
 90
        9
 90
        0
  1
AlignItems
 90
        0
 90
        1
 90
        0
330
0
330
0
 90
        0
  1
AxesAngle
 90
        2
 90
        1
 40
1.570796326794896
330
0
330
0
 90
        0
  1
ItemSpacing
 90
        1
 90
        1
 40
12.5569
330
0
330
0
 90
        0
  1
Items
 90
        0
 90
        1
 90
       78
330
0
330
0
 90
        0
  1
LevelSpacing
 90
        1
 90
        1
 40
1.0
330
0
330
0
 90
        0
  1
Levels
 90
        0
 90
        1
 90
        1
330
0
330
0
 90
        0
  1
RowElevation
 90
        1
 90
        1
 40
0.0
330
0
330
0
 90
        0
  1
RowSpacing
 90
        1
 90
        1
 40
931.5000000000006
330
0
330
0
 90
        0
  1
Rows
 90
        0
 90
        1
 90
        1
330
0
330
0
100
AcDbAssocArrayActionBody
 90
        1
  1
AcDbAssocArrayRectangularParameters
 90
        0
 90
       78
  1
AcDbAssocArrayItem
100
AcDbAssocArrayItem
 90
        0
 90
        0
 90
        0
 90
        0
 90
        8
 11
0.0
 21
0.0
 31
0.0
330
2765
100
AcDbAssocArrayItem
 90
        0
 90
        1
 90
        0
 90
        0
 90
        8
 11
12.5569
 21
0.0
 31
0.0
330
2766
100
AcDbAssocArrayItem
 90
        0
 90
        2
 90
        0
 90
        0
 90
        8
 11
25.1138
 21
0.0
 31
0.0
330
2767
100
AcDbAssocArrayItem
 90
        0
 90
        3
 90
        0
 90
        0
 90
        8
 11
37.6707
 21
0.0
 31
0.0
330
2768
100
AcDbAssocArrayItem
 90
        0
 90
        4
 90
        0
 90
        0
 90
        8
 11
50.2276
 21
0.0
 31
0.0
330
2769
100
AcDbAssocArrayItem
 90
        0
 90
        5
 90
        0
 90
        0
 90
        8
 11
62.7845
 21
0.0
 31
0.0
330
276A
100
AcDbAssocArrayItem
 90
        0
 90
        6
 90
        0
 90
        0
 90
        8
 11
75.3414
 21
0.0
 31
0.0
330
276B
100
AcDbAssocArrayItem
 90
        0
 90
        7
 90
        0
 90
        0
 90
        8
 11
87.8983
 21
0.0
 31
0.0
330
276C
100
AcDbAssocArrayItem
 90
        0
 90
        8
 90
        0
 90
        0
 90
        8
 11
100.4552
 21
0.0
 31
0.0
330
276D
100
AcDbAssocArrayItem
 90
        0
 90
        9
 90
        0
 90
        0
 90
        8
 11
113.0121
 21
0.0
 31
0.0
330
276E
100
AcDbAssocArrayItem
 90
        0
 90
       10
 90
        0
 90
        0
 90
        8
 11
125.569
 21
0.0
 31
0.0
330
276F
100
AcDbAssocArrayItem
 90
        0
 90
       11
 90
        0
 90
        0
 90
        8
 11
138.1259
 21
0.0
 31
0.0
330
2770
100
AcDbAssocArrayItem
 90
        0
 90
       12
 90
        0
 90
        0
 90
        8
 11
150.6828
 21
0.0
 31
0.0
330
2771
100
AcDbAssocArrayItem
 90
        0
 90
       13
 90
        0
 90
        0
 90
        8
 11
163.2397
 21
0.0
 31
0.0
330
2772
100
AcDbAssocArrayItem
 90
        0
 90
       14
 90
        0
 90
        0
 90
        8
 11
175.7966
 21
0.0
 31
0.0
330
2773
100
AcDbAssocArrayItem
 90
        0
 90
       15
 90
        0
 90
        0
 90
        8
 11
188.3535
 21
0.0
 31
0.0
330
2774
100
AcDbAssocArrayItem
 90
        0
 90
       16
 90
        0
 90
        0
 90
        8
 11
200.9104
 21
0.0
 31
0.0
330
2775
100
AcDbAssocArrayItem
 90
        0
 90
       17
 90
        0
 90
        0
 90
        8
 11
213.4673
 21
0.0
 31
0.0
330
2776
100
AcDbAssocArrayItem
 90
        0
 90
       18
 90
        0
 90
        0
 90
        8
 11
226.0242
 21
0.0
 31
0.0
330
2777
100
AcDbAssocArrayItem
 90
        0
 90
       19
 90
        0
 90
        0
 90
        8
 11
238.5811
 21
0.0
 31
0.0
330
2778
100
AcDbAssocArrayItem
 90
        0
 90
       20
 90
        0
 90
        0
 90
        8
 11
251.138
 21
0.0
 31
0.0
330
2779
100
AcDbAssocArrayItem
 90
        0
 90
       21
 90
        0
 90
        0
 90
        8
 11
263.6949
 21
0.0
 31
0.0
330
277A
100
AcDbAssocArrayItem
 90
        0
 90
       22
 90
        0
 90
        0
 90
        8
 11
276.2518
 21
0.0
 31
0.0
330
277B
100
AcDbAssocArrayItem
 90
        0
 90
       23
 90
        0
 90
        0
 90
        8
 11
288.8087
 21
0.0
 31
0.0
330
277C
100
AcDbAssocArrayItem
 90
        0
 90
       24
 90
        0
 90
        0
 90
        8
 11
301.3656000000001
 21
0.0
 31
0.0
330
277D
100
AcDbAssocArrayItem
 90
        0
 90
       25
 90
        0
 90
        0
 90
        8
 11
313.9225
 21
0.0
 31
0.0
330
277E
100
AcDbAssocArrayItem
 90
        0
 90
       26
 90
        0
 90
        0
 90
        8
 11
326.4794
 21
0.0
 31
0.0
330
277F
100
AcDbAssocArrayItem
 90
        0
 90
       27
 90
        0
 90
        0
 90
        8
 11
339.0363000000001
 21
0.0
 31
0.0
330
2780
100
AcDbAssocArrayItem
 90
        0
 90
       28
 90
        0
 90
        0
 90
        8
 11
351.5932
 21
0.0
 31
0.0
330
2781
100
AcDbAssocArrayItem
 90
        0
 90
       29
 90
        0
 90
        0
 90
        8
 11
364.1501
 21
0.0
 31
0.0
330
2782
100
AcDbAssocArrayItem
 90
        0
 90
       30
 90
        0
 90
        0
 90
        8
 11
376.707
 21
0.0
 31
0.0
330
2783
100
AcDbAssocArrayItem
 90
        0
 90
       31
 90
        0
 90
        0
 90
        8
 11
389.2639
 21
0.0
 31
0.0
330
2784
100
AcDbAssocArrayItem
 90
        0
 90
       32
 90
        0
 90
        0
 90
        8
 11
401.8208
 21
0.0
 31
0.0
330
2785
100
AcDbAssocArrayItem
 90
        0
 90
       33
 90
        0
 90
        0
 90
        8
 11
414.3777
 21
0.0
 31
0.0
330
2786
100
AcDbAssocArrayItem
 90
        0
 90
       34
 90
        0
 90
        0
 90
        8
 11
426.9346
 21
0.0
 31
0.0
330
2787
100
AcDbAssocArrayItem
 90
        0
 90
       35
 90
        0
 90
        0
 90
        8
 11
439.4915
 21
0.0
 31
0.0
330
2788
100
AcDbAssocArrayItem
 90
        0
 90
       36
 90
        0
 90
        0
 90
        8
 11
452.0484
 21
0.0
 31
0.0
330
2789
100
AcDbAssocArrayItem
 90
        0
 90
       37
 90
        0
 90
        0
 90
        8
 11
464.6053
 21
0.0
 31
0.0
330
278A
100
AcDbAssocArrayItem
 90
        0
 90
       38
 90
        0
 90
        0
 90
        8
 11
477.1622
 21
0.0
 31
0.0
330
278B
100
AcDbAssocArrayItem
 90
        0
 90
       39
 90
        0
 90
        0
 90
        8
 11
489.7191
 21
0.0
 31
0.0
330
278C
100
AcDbAssocArrayItem
 90
        0
 90
       40
 90
        0
 90
        0
 90
        8
 11
502.2759999999999
 21
0.0
 31
0.0
330
278D
100
AcDbAssocArrayItem
 90
        0
 90
       41
 90
        0
 90
        0
 90
        8
 11
514.8329
 21
0.0
 31
0.0
330
278E
100
AcDbAssocArrayItem
 90
        0
 90
       42
 90
        0
 90
        0
 90
        8
 11
527.3898
 21
0.0
 31
0.0
330
278F
100
AcDbAssocArrayItem
 90
        0
 90
       43
 90
        0
 90
        0
 90
        8
 11
539.9467
 21
0.0
 31
0.0
330
2790
100
AcDbAssocArrayItem
 90
        0
 90
       44
 90
        0
 90
        0
 90
        8
 11
552.5036
 21
0.0
 31
0.0
330
2791
100
AcDbAssocArrayItem
 90
        0
 90
       45
 90
        0
 90
        0
 90
        8
 11
565.0605
 21
0.0
 31
0.0
330
2792
100
AcDbAssocArrayItem
 90
        0
 90
       46
 90
        0
 90
        0
 90
        8
 11
577.6174
 21
0.0
 31
0.0
330
2793
100
AcDbAssocArrayItem
 90
        0
 90
       47
 90
        0
 90
        0
 90
        8
 11
590.1743
 21
0.0
 31
0.0
330
2794
100
AcDbAssocArrayItem
 90
        0
 90
       48
 90
        0
 90
        0
 90
        8
 11
602.7312000000001
 21
0.0
 31
0.0
330
2795
100
AcDbAssocArrayItem
 90
        0
 90
       49
 90
        0
 90
        0
 90
        8
 11
615.2880999999999
 21
0.0
 31
0.0
330
2796
100
AcDbAssocArrayItem
 90
        0
 90
       50
 90
        0
 90
        0
 90
        8
 11
627.845
 21
0.0
 31
0.0
330
2797
100
AcDbAssocArrayItem
 90
        0
 90
       51
 90
        0
 90
        0
 90
        8
 11
640.4019
 21
0.0
 31
0.0
330
2798
100
AcDbAssocArrayItem
 90
        0
 90
       52
 90
        0
 90
        0
 90
        8
 11
652.9588
 21
0.0
 31
0.0
330
2799
100
AcDbAssocArrayItem
 90
        0
 90
       53
 90
        0
 90
        0
 90
        8
 11
665.5157
 21
0.0
 31
0.0
330
279A
100
AcDbAssocArrayItem
 90
        0
 90
       54
 90
        0
 90
        0
 90
        8
 11
678.0726000000001
 21
0.0
 31
0.0
330
279B
100
AcDbAssocArrayItem
 90
        0
 90
       55
 90
        0
 90
        0
 90
        8
 11
690.6295
 21
0.0
 31
0.0
330
279C
100
AcDbAssocArrayItem
 90
        0
 90
       56
 90
        0
 90
        0
 90
        8
 11
703.1864
 21
0.0
 31
0.0
330
279D
100
AcDbAssocArrayItem
 90
        0
 90
       57
 90
        0
 90
        0
 90
        8
 11
715.7433000000001
 21
0.0
 31
0.0
330
279E
100
AcDbAssocArrayItem
 90
        0
 90
       58
 90
        0
 90
        0
 90
        8
 11
728.3002
 21
0.0
 31
0.0
330
279F
100
AcDbAssocArrayItem
 90
        0
 90
       59
 90
        0
 90
        0
 90
        8
 11
740.8571000000001
 21
0.0
 31
0.0
330
27A0
100
AcDbAssocArrayItem
 90
        0
 90
       60
 90
        0
 90
        0
 90
        8
 11
753.4139999999999
 21
0.0
 31
0.0
330
27A1
100
AcDbAssocArrayItem
 90
        0
 90
       61
 90
        0
 90
        0
 90
        8
 11
765.9709
 21
0.0
 31
0.0
330
27A2
100
AcDbAssocArrayItem
 90
        0
 90
       62
 90
        0
 90
        0
 90
        8
 11
778.5278
 21
0.0
 31
0.0
330
27A3
100
AcDbAssocArrayItem
 90
        0
 90
       63
 90
        0
 90
        0
 90
        8
 11
791.0847
 21
0.0
 31
0.0
330
27A4
100
AcDbAssocArrayItem
 90
        0
 90
       64
 90
        0
 90
        0
 90
        8
 11
803.6416
 21
0.0
 31
0.0
330
27A5
100
AcDbAssocArrayItem
 90
        0
 90
       65
 90
        0
 90
        0
 90
        8
 11
816.1985000000001
 21
0.0
 31
0.0
330
27A6
100
AcDbAssocArrayItem
 90
        0
 90
       66
 90
        0
 90
        0
 90
        8
 11
828.7554
 21
0.0
 31
0.0
330
27A7
100
AcDbAssocArrayItem
 90
        0
 90
       67
 90
        0
 90
        0
 90
        8
 11
841.3123
 21
0.0
 31
0.0
330
27A8
100
AcDbAssocArrayItem
 90
        0
 90
       68
 90
        0
 90
        0
 90
        8
 11
853.8692000000001
 21
0.0
 31
0.0
330
27A9
100
AcDbAssocArrayItem
 90
        0
 90
       69
 90
        0
 90
        0
 90
        8
 11
866.4260999999999
 21
0.0
 31
0.0
330
27AA
100
AcDbAssocArrayItem
 90
        0
 90
       70
 90
        0
 90
        0
 90
        8
 11
878.983
 21
0.0
 31
0.0
330
27AB
100
AcDbAssocArrayItem
 90
        0
 90
       71
 90
        0
 90
        0
 90
        8
 11
891.5399
 21
0.0
 31
0.0
330
27AC
100
AcDbAssocArrayItem
 90
        0
 90
       72
 90
        0
 90
        0
 90
        8
 11
904.0968000000001
 21
0.0
 31
0.0
330
27AD
100
AcDbAssocArrayItem
 90
        0
 90
       73
 90
        0
 90
        0
 90
        8
 11
916.6537000000001
 21
0.0
 31
0.0
330
27AE
100
AcDbAssocArrayItem
 90
        0
 90
       74
 90
        0
 90
        0
 90
        8
 11
929.2106
 21
0.0
 31
0.0
330
27AF
100
AcDbAssocArrayItem
 90
        0
 90
       75
 90
        0
 90
        0
 90
        8
 11
941.7675
 21
0.0
 31
0.0
330
27B0
100
AcDbAssocArrayItem
 90
        0
 90
       76
 90
        0
 90
        0
 90
        8
 11
954.3244000000001
 21
0.0
 31
0.0
330
27B1
100
AcDbAssocArrayItem
 90
        0
 90
       77
 90
        0
 90
        0
 90
        8
 11
966.8813
 21
0.0
 31
0.0
330
27B2
 40
1.0
 40
0.0
 40
0.0
 40
437.4251632010832
 40
0.0
 40
1.0
 40
0.0
 40
1385.371639603063
 40
0.0
 40
0.0
 40
1.0
 40
0.0
 40
0.0
 40
0.0
 40
0.0
 40
1.0
  0
ACDBASSOCDEPENDENCY
  5
2760
330
275C
100
AcDbAssocDependency
 90
        2
 90
        1
290
     0
290
     1
290
     1
290
     1
 90
        0
330
26F7
290
     0
330
0
330
0
360
0
 90
        1
  0
ACDBASSOCDEPENDENCY
  5
2761
330
275C
100
AcDbAssocDependency
 90
        2
 90
        1
290
     1
290
     0
290
     1
290
     1
 90
        0
330
26F4
290
     0
330
0
330
0
360
0
 90
        2
  0
ACDBASSOCDEPENDENCY
  5
2762
330
275C
100
AcDbAssocDependency
 90
        2
 90
        0
290
     1
290
     1
290
     1
290
     1
 90
-2147483648
330
26FA
290
     0
330
0
330
0
360
0
 90
        3
  0
ACDBASSOCVERTEXACTIONPARAM
  5
25D6
330
25D5
100
AcDbAssocActionParam
 90
        0
  1
BaseNormal
100
AcDbAssocSingleDependencyActionParam
 90
        0
330
0
100
AcDbAssocVertexActionParam
 90
        0
 10
0.0
 20
0.0
 30
1.0
  0
ACDBASSOCVERTEXACTIONPARAM
  5
25D7
330
25D5
100
AcDbAssocActionParam
 90
        0
  1
Origin
100
AcDbAssocSingleDependencyActionParam
 90
        0
330
0
100
AcDbAssocVertexActionParam
 90
        0
 10
0.0
 20
0.0
 30
0.0
  0
ACDBASSOCVERTEXACTIONPARAM
  5
25DB
330
25D5
100
AcDbAssocActionParam
 90
        0
  1
basePoint
100
AcDbAssocSingleDependencyActionParam
 90
        0
330
0
100
AcDbAssocVertexActionParam
 90
        0
 10
0.0
 20
0.0
 30
0.0
  0
ACDBASSOCVERTEXACTIONPARAM
  5
275E
330
275D
100
AcDbAssocActionParam
 90
        0
  1
BaseNormal
100
AcDbAssocSingleDependencyActionParam
 90
        0
330
0
100
AcDbAssocVertexActionParam
 90
        0
 10
0.0
 20
0.0
 30
1.0
  0
ACDBASSOCVERTEXACTIONPARAM
  5
275F
330
275D
100
AcDbAssocActionParam
 90
        0
  1
Origin
100
AcDbAssocSingleDependencyActionParam
 90
        0
330
0
100
AcDbAssocVertexActionParam
 90
        0
 10
0.0
 20
0.0
 30
0.0
  0
ACDBASSOCVERTEXACTIONPARAM
  5
2763
330
275D
100
AcDbAssocActionParam
 90
        0
  1
basePoint
100
AcDbAssocSingleDependencyActionParam
 90
        0
330
0
100
AcDbAssocVertexActionParam
 90
        0
 10
0.0
 20
0.0
 30
0.0
  0
ENDSEC
  0
EOF
